
<?xml version="1.0" standalone="no"?>
<!DOCTYPE svg PUBLIC "-//W3C//DTD SVG 1.1//EN" "http://www.w3.org/Graphics/SVG/1.1/DTD/svg11.dtd" >
<svg xmlns="http://www.w3.org/2000/svg">
<metadata>
This is a custom SVG webfont generated by Font Squirrel.
Copyright   :  Yummygum
Designer    : Yummygum
Foundry     : Yummygum
Foundry URL : httpwwwiconsweets2com
</metadata>
<defs>
<font id="iconSweetsRegular" horiz-adv-x="1818" >
<font-face units-per-em="2048" ascent="1536" descent="-512" />
<missing-glyph horiz-adv-x="1024" />
<glyph unicode=" "  horiz-adv-x="1024" />
<glyph unicode="&#x09;" horiz-adv-x="1024" />
<glyph unicode="&#xa0;" horiz-adv-x="1024" />
<glyph unicode="!" d="M174 229q12 33 45 68l608 1061q66 80 140 47q27 -14 59 -49l604 -1059q68 -78 41 -111q-14 -18 -41 -20h-1403q-82 0 -53 63zM823 383q0 -47 33 -79t78 -32t76.5 32t31.5 79t-31.5 79t-76.5 32t-78 -32t-33 -79zM823 643q0 -41 28 -68.5t69 -27.5q43 0 81.5 29.5 t38.5 66.5v406q0 39 -34.5 68.5t-75.5 29.5t-74 -28.5t-33 -69.5v-406z" />
<glyph unicode="&#x22;" d="M100 936q0 184 182.5 313t438.5 129q248 0 390 -126t142 -316q0 -193 -141 -316.5t-391 -123.5q-70 0 -121 8q-57 -61 -115 -96q-150 -90 -305 -64q49 25 86 56.5t53.5 61.5t22.5 56.5t2 45t-14 24.5q-230 139 -230 348zM705 440q141 -102 360 -102q12 0 121 16 q43 -49 112 -90q145 -76 310 -18q-51 25 -87 51.5t-52.5 50t-22.5 44t-2 34.5t14 20q238 143 238 347q0 158 -139.5 288.5t-348.5 171.5q72 -117 94.5 -242.5t-10 -235t-106.5 -193.5t-199.5 -123t-281.5 -19z" />
<glyph unicode="#" d="M201 872q0 225 223 386t539 161q305 0 490 -156.5t185 -390.5q0 -231 -184 -383.5t-491 -152.5q-70 0 -152 10q-55 -66 -137 -119q-168 -113 -375 -86q61 29 105.5 69t63.5 77t27.5 71.5t3.5 59t-18 31.5q-131 78 -205.5 188t-74.5 235z" />
<glyph unicode="$" d="M127 954v103q0 31 27 45q14 6 26 4h301v-49q0 -29 13 -51q20 -51 84 -52h57q72 0 110 76q18 31 29 76h174q10 -45 29 -76q39 -76 113 -76h53q25 0 49 11q49 25 49 92v49h356q35 0 43 -51q6 -25 5 -49v-52q0 -29 -27 -43q-12 -6 -25 -6h-45h-1319h-51q-39 0 -47 25 q-6 10 -4 24zM178 854h1421l-256 -653q-10 -37 -30 -49q-12 -8 -23 -7l-807 -2q-25 0 -43 27q-8 16 -8 27zM332 702.5q0 -22.5 14 -37t37 -14.5t37 14.5t14 37t-14 37t-37 14.5t-37 -14.5t-14 -37zM434 499.5q0 -20.5 14.5 -35.5t36.5 -15q20 0 36 15t16 35.5t-15.5 36 t-36.5 15.5q-23 0 -37 -15.5t-14 -36zM532 296.5q0 -20.5 15.5 -35.5t36.5 -15q23 0 38 15t15 36q0 23 -15.5 38t-37.5 15q-20 0 -36 -16.5t-16 -37zM532 702.5q0 -20.5 15.5 -36t36.5 -15.5q23 0 38 15.5t15 36t-15.5 36t-37.5 15.5q-20 0 -36 -15.5t-16 -36zM535 1057 l151 303q0 14 25 35q2 2 26 16h49q51 0 52 -51l-152 -303q-6 -23 -22.5 -37t-28.5 -14h-51q-25 0 -36 8t-12 15.5t-1 27.5zM637 499.5q0 -20.5 15.5 -35.5t36 -15t35.5 15t15 35.5t-15 36t-35.5 15.5t-36 -15.5t-15.5 -36zM737 296.5q0 -22.5 14.5 -36.5t35 -14t36 14 t15.5 36.5t-15.5 38t-36 15.5t-35 -15.5t-14.5 -38zM737 702.5q0 -22.5 14.5 -37t37 -14.5t37 14.5t14.5 37t-14.5 37t-37 14.5t-37 -14.5t-14.5 -37zM838 499.5q0 -20.5 15 -35.5t38 -15q20 0 35.5 15t15.5 35.5t-15.5 36t-35.5 15.5q-23 0 -38 -15.5t-15 -36zM889 1360 q0 16 2 25.5t13 17.5t34 8h51l27 -16q25 -25 24 -35l152 -303v-17q0 -4 -2 -13t-7 -12t-15.5 -6t-24.5 -3h-53q-8 0 -25.5 14t-24.5 37zM938 296.5q0 -20.5 15.5 -35.5t35.5 -15q23 0 38 15t15 36q0 23 -15 38t-38 15q-20 0 -35.5 -16.5t-15.5 -37zM940 702.5 q0 -22.5 15.5 -37t36 -14.5t35.5 14.5t15 37t-15 37t-35.5 14.5t-36 -14.5t-15.5 -37zM1042 499.5q0 -22.5 14.5 -36.5t35.5 -14q23 0 37 15t14 35.5t-14.5 36t-36.5 15.5q-20 0 -35 -14.5t-15 -37zM1141 296.5q0 -22.5 15 -36.5t35.5 -14t36 14t15.5 36.5t-15.5 38 t-36 15.5t-35.5 -15.5t-15 -38zM1143 702.5q0 -22.5 14 -37t37 -14.5t37 14.5t14 37t-14 37t-37 14.5t-37 -14.5t-14 -37zM1243 499.5q0 -20.5 15.5 -35.5t35.5 -15q23 0 38.5 15t15.5 35.5t-15.5 36t-38.5 15.5q-20 0 -35.5 -15.5t-15.5 -36zM1346 702.5q0 -22.5 14 -37 t35 -14.5q23 0 38 15.5t15 36t-15.5 36t-37.5 15.5q-20 0 -34.5 -14.5t-14.5 -37z" />
<glyph unicode="%" d="M211 907q-4 -29 22 -43q12 -6 27 -6h1335q31 0 43 23q8 10 9 26v49q0 57 -25 86q-8 8 -25 13h-294v-49q0 -25 -15 -50q-23 -49 -84 -49h-51q-27 0 -59 19q-66 37 -80 129h-170q-20 -88 -80 -127q-31 -20 -57 -21h-56q-33 4 -47 13q-47 27 -47 86v49h-295q-27 0 -45 -27 q-6 -12 -6 -22v-99zM309 809l49 -594q6 -31 31 -45q8 -6 21 -6l1038 2q23 0 39 24q4 4 12 27l51 590zM608 1006l148 297q0 10 8 16q12 20 41 33h49q33 0 42 -12.5t9 -36.5l-149 -297q-4 -20 -21.5 -35t-27.5 -15h-50q-33 0 -41 11.5t-8 38.5zM954 1303l150 -297 q6 -23 22.5 -36.5t26.5 -13.5h49q33 0 41 11.5t8 38.5l-147 297q0 10 -6 16q-12 20 -45 33h-49q-50 0 -50 -49z" />
<glyph unicode="&#x26;" d="M610 121v26v1205q2 23 13 45q25 47 84 51h434q23 0 43 -10q47 -27 57 -80v-1221q0 -27 -6 -37q-12 -29 -49 35l-240 393l-16 17q-16 6 -29 -19l-242 -385q-18 -37 -24 -43q-21 -26 -25 23z" />
<glyph unicode="'" d="M469 190v1106q0 14 6 23q12 25 39 24q14 0 23 -6q25 -12 24 -37v-1110q0 -6 -4 -22q-14 -23 -41 -23q-12 0 -24 7q-23 13 -23 38zM606 193v1103q0 14 6 23q12 25 41 24h47q27 -8 39 -26q6 -10 6 -21v-104q0 -18 -1 -223t-1 -412l183 188l186 -190v741q0 6 4 23 q8 23 33 22l237 2q14 0 25 -6q25 -12 25 -41v-1063q0 -25 -13 -43q-20 -45 -80 -45h-690q-12 0 -24 7q-23 14 -23 41zM651 1389q-2 14 11.5 23t36 15.5t46.5 6.5l228 2q29 -4 41 -13q43 -23 53 -75v-650l-139 140l-137 -142v647q0 23 -23 37q-12 6 -23 6z" />
<glyph unicode="(" d="M354 1069q4 135 13 303q51 0 141 1t129 1q279 0 303 -22l619 -559q27 -33 11 -89.5t-48 -91.5l-387 -430q-29 -31 -71 -29.5t-73 29.5l-624 582q-21 0 -13 305zM453 1170q0 -44 30 -74q31 -33 76 -32t76 31.5t31 74.5t-31 75q-33 31 -76 32t-76 -32q-30 -31 -30 -75z M645 868q0 -63 51 -114q47 -47 109 -54q68 -6 137 35l125 -125q-27 -10 -53 -4q-31 2 -60 23l-69 -86q70 -51 131 -51t125 47l53 -56l43 43l-55 58q51 68 45 135q-2 68 -58 125q-51 49 -106 51q-59 6 -148 -45l-116 115q39 20 84 -11l63 84q-49 41 -106.5 37t-108.5 -43 l-29 29l-43 -43l29 -29q-47 -55 -43 -121zM745 874q-2 25 9 50l102 -103q-27 -12 -51 -8q-27 6 -39 21q-19 20 -21 40zM997 766q33 16 64 16q27 -4 45 -22q23 -29 24 -53q2 -29 -14 -58z" />
<glyph unicode=")" d="M238 1098q4 137 12 305q201 4 274 4q279 0 305 -25l625 -565q82 -53 -35 -182l-391 -434q-31 -31 -73 -31t-74 31l-631 585q-20 9 -12 312zM336 1199q0 -44 32.5 -76.5t75.5 -32.5t76 32.5t33 76.5t-33 77t-76 33t-75.5 -33t-32.5 -77zM530 893q2 -61 54 -115 q47 -45 110 -55q59 -6 137 37l127 -127q-25 -10 -55 -4q-33 4 -59 24l-70 -88q68 -51 133.5 -51t124.5 47l53 -55l45 43l-57 55q51 74 45 139q-2 70 -57 127q-49 47 -107 54q-61 4 -151 -50l-117 119q41 16 84 -12l68 86q-51 37 -111 37q-51 0 -109 -45l-28 31l-45 -46 l30 -26q-45 -59 -45 -125zM633 901q-4 29 8 49l104 -104q-23 -12 -51 -8q-25 6 -39 20q-20 23 -22 43zM889 791q39 18 61 16q27 -2 47 -23q23 -23 25 -55q4 -33 -14 -55zM901 1403h43q45 -4 72 -27l530 -499q57 -55 62.5 -107.5t-58.5 -138.5l-358 -430q-25 -25 -57.5 -31 t-63.5 8q-2 0 28.5 36t85 98.5t105.5 119.5q125 141 228 248q18 39 22 63q8 68 -55 111z" />
<glyph unicode="*" d="M240 930q6 8 26 24q33 23 78 23h356q10 0 23 6q23 18 27 49l104 354q14 31 25 48q29 49 45 49h4q16 0 45 -49q20 -41 22 -48l105 -354q4 -31 26 -49q12 -6 25 -6h356q41 0 76 -23q20 -16 27 -24q-8 -12 -56 -37q-29 -12 -45 -21l-311 -198q-20 -14 -12 -58q0 -4 14 -41 l150 -358q14 -68 8 -88q-2 -12 -8 -14q-31 16 -82 53q-96 68 -316 252q-2 4 -14 16q-20 8 -39 -14q-231 -201 -328 -268q-43 -31 -65 -39q-6 2 -8 14q-4 16 4 92l153 359q12 20 19 41q12 43 -17 53l-315 198q-37 14 -45 21q-49 21 -57 37z" />
<glyph unicode="+" d="M266 688v150q4 27 13 49q27 51 90 51h368v367q0 31 13 51q25 53 92 53q18 0 54 2t52 2h53q27 -2 48 -14q47 -25 57 -92v-369h362q31 0 52 -12q53 -25 53 -88v-162q0 -29 -14 -53q-31 -51 -95 -52h-360v-370q0 -25 -14 -49q-29 -49 -95 -50h-155q-27 0 -52 15 q-51 25 -51 92v362h-372q-16 0 -50 15q-49 28 -49 102z" />
<glyph unicode="," d="M215 764q61 385 365 541q131 63 292 73v43q0 29 23 41q10 6 22.5 6t24.5 -6q25 -12 21 -39v-45q410 -10 571 -311q82 -154 82 -295v-2q-37 82 -139 121q-51 18 -93 18q-49 0 -102 -16q-111 -39 -133 -127q-25 88 -131 125q-45 14 -103 18q-117 8 -190 -65 q-33 -33 -47 -74q-16 88 -125 125q-49 14 -109 18q-104 4 -176 -71q-33 -35 -53 -78zM588 299q2 27 26 39q8 6 25 6q14 0 23 -6q23 -10 22 -41q-4 -57 45 -82q20 -8 47 -12q57 2 82 49q8 12 12 45v563h91v-563q0 -117 -95 -162q-43 -20 -90 -22q-119 -2 -164 92 q-20 39 -24 94z" />
<glyph unicode="-" d="M147 698v176q0 31 13 58q33 61 106 61h1297q29 0 61 -14q61 -33 62 -105v-190q0 -33 -15 -61q-31 -59 -110 -60h-1299q-31 0 -57 17q-58 38 -58 118z" />
<glyph unicode="." d="M344 1073l12 318q213 4 285 4q291 0 317 -27l648 -586q29 -37 13.5 -93t-50.5 -95l-406 -453q-31 -31 -75 -30.5t-76 30.5l-654 611q-26 -1 -14 321zM446 1179q0 -46 35 -79q33 -33 79 -33t79 33t33 79t-33 78.5t-79 32.5t-79 -33q-35 -32 -35 -78z" />
<glyph unicode="/" d="M238 1102q2 59 10 303q53 0 143 1t129 1q279 0 303 -23l619 -559q80 -53 -37 -180l-387 -432q-29 -31 -71 -30t-73 30l-624 582q-20 0 -12 307zM336 1203q0 -44 31 -75q31 -33 74.5 -32.5t74.5 32.5q33 31 33 74t-33 76q-31 31 -75 31t-74.5 -31t-30.5 -75zM893 1403 q23 4 43 0q53 -8 72 -25l524 -495q57 -55 61 -106.5t-57 -135.5l-354 -428q-61 -53 -121 -20q-2 0 28.5 36.5t82 94t106.5 118.5l225 248q18 35 21 62q8 70 -51 108z" />
<glyph unicode="0" d="M152 741l751 738l729 -734h-159l-570 566l-604 -570h-147zM352 66v675l547 510l516 -510v-673h-405v342q2 10 -4 24q-16 29 -50 29h-155q-31 0 -39 -29q-6 -14 -4 -24v-342zM758 741h100v113h-100v-113zM758 911h100v113h-100v-113zM909 741h101v113h-101v-113zM909 911 h101v113h-101v-113zM1264 1417h151l-4 -334l-143 138z" />
<glyph unicode="1" d="M225 952q0 16 15 31l678 469q23 27 47 14q8 -2 22 -16l684 -469q33 -37 -6 -53q-14 -4 -49 -8l-43 2q-35 -4 -53 -15q-55 -27 -56 -94q2 -254 2 -491q0 -88 -2 -111q0 -25 -14 -49q-33 -51 -92 -51q-16 0 -29 6q-25 12 -24 47l-2 379q0 16 -9 26q-12 27 -49 27h-211 q-18 0 -26 -6q-29 -16 -29 -47l2 -373q0 -18 -6 -29q-10 -31 -49 -30h-379q-25 0 -53 14q-55 31 -56 100q-2 352 0 480q0 88 2 112q-4 33 -14 51q-25 51 -90 52h-43q-68 -1 -68 32zM385 1196q0 -18 7 -23.5t16 1.5q12 8 22 18l172 111v53q0 68 -57 92q-20 12 -56 12 q-66 2 -90 -51q-14 -29 -14 -57v-156zM1032 354q0 27 27 27h55q29 0 29 -27q0 -29 -29 -28h-55q-27 -1 -27 28z" />
<glyph unicode="2" d="M84 258v1036q0 20 40 61.5t62 41.5h1448q20 0 61.5 -41t41.5 -62v-1036q0 -20 -41 -61t-62 -41h-1448q-23 0 -62.5 41t-39.5 61zM238 311h1345v930h-1345v-930zM291 362l207 308l106 -99l314 357l98 -107l207 266l305 -471v-254h-1237zM393 983.5q0 63.5 45 107.5t107 44 q66 0 108.5 -44t42.5 -108q0 -66 -43 -110t-108 -44q-61 0 -106.5 45.5t-45.5 109z" />
<glyph unicode="3" d="M102 418v870q0 23 43 66t66 43h1255q23 0 66 -43t43 -66v-870q0 -39 -41 -76t-68 -37l-1255 2q-23 0 -66 44t-43 67zM211 414h1257v874h-1257v-874zM266 250h1278q70 0 86 74q6 31 2 75v834q23 0 66 -44t43 -67v-868q0 -23 -43 -68t-66 -45h-1257q-23 0 -66 43t-43 66z M266 473l164 209l113 -104l274 323l107 -115l215 283l270 -387v-209h-1143zM371 1099.5q0 57.5 40 97.5t97 40q59 0 99 -40t40 -97.5t-40 -97t-99 -39.5q-57 0 -97 39.5t-40 97z" />
<glyph unicode="4" d="M432 948q0 -219 115 -376.5t315 -188.5v-197h-215q-29 0 -50.5 -21.5t-21.5 -50t21.5 -50t50.5 -21.5h621q29 0 49 21.5t20 50t-20.5 50t-48.5 21.5h-217v195q199 33 314.5 191.5t115.5 375.5q0 29 -37 41q-18 6 -37 6q-23 0 -37 -6q-35 -12 -35 -41q0 -184 -104.5 -307 t-278.5 -123q-172 0 -275.5 123t-103.5 307q0 29 -41 41q-16 6 -36 6q-43 0 -56 -24q-4 -5 -8 -23zM672 901v287q0 119 83 202t201.5 83t202.5 -83t84 -202v-287q0 -119 -84 -203t-202.5 -84t-201.5 84t-83 203z" />
<glyph unicode="5" d="M70 692v121q0 25 14 57q29 57 98 58h131q20 0 37 8q43 12 68 49l231 170h56q20 0 30 -8q33 -12 33 -51v-697q0 -16 -6 -28q-16 -29 -55 -29l-58 6l-227 170q-12 12 -31 25q-41 23 -90 35h-115q-31 0 -63 14q-61 26 -53 100zM866 543q139 104 140 217q0 121 -93 201 l60 120q145 -129 145 -323q0 -190 -141 -320zM1112 319q184 184 184 438.5t-180 434.5l76 106q217 -231 217 -540q0 -317 -225 -547zM1329 1405l88 106q285 -328 285 -753q0 -428 -287 -754l-84 109q250 281 250 645q0 368 -252 647z" />
<glyph unicode="6" d="M160 694q0 -102 73 -143q29 -16 76 -21q31 -18 47 -57q6 -23 6 -35v-354q-4 -33 23 -51q16 -6 29 -6h94q39 6 51 30q8 10 8 23q-8 129 -24 172q-10 25 -21 24q57 63 29 117q-12 23 -39 37q27 33 45 78q6 16 6 27l4 454q4 27 -24 47q-14 6 -31 6h-197q-94 0 -137 -75 q-18 -37 -18 -74v-199zM618 582v411q-8 31 21 43q4 2 29 6q322 -10 571 166q111 78 188 176q33 41 43 27q8 -6 9 -20l-4 -861v-335q4 -12 -5 -21q-8 -16 -36 19q-127 215 -453 299q-147 37 -309 43q-37 0 -47 22q-7 7 -7 25zM1530 178v1219q0 20 15.5 35.5t36 15.5 t35.5 -15.5t15 -35.5v-1219q0 -20 -15 -35.5t-35.5 -15.5t-36 15.5t-15.5 35.5z" />
<glyph unicode="7" d="M227 1112l146 186l381 2v-382h-385zM801 137v1211h190v-1211q0 -45 -20.5 -59.5t-73.5 -14.5q-59 0 -77.5 12.5t-18.5 61.5zM805 1393q0 100 92 100q51 0 72.5 -30.5t21.5 -69.5q-76 2 -149 2q-29 0 -37 -2zM1040 586h285l145 141l-151 143l-279 -4v-280zM1040 918h476 l147 190l-154 192h-469v-382z" />
<glyph unicode="8" d="M283 98l36 125l113 -104zM346 299l60 195l296 -246l-184 -96zM440 543l715 708l295 -280l-709 -686zM1210 1296l133 138q12 12 35 20q41 12 72 -29l166 -174q12 -12 22 -32q16 -37 -20 -66l-129 -127z" />
<glyph unicode="9" d="M104 135q338 -186 586 4q111 82 184 226l-247 243q-162 -10 -226 -135q-27 -55 -30 -125q-2 -68 -35 -119q-66 -114 -232 -94zM651 664l43 36q25 18 27 21q4 4 4 20.5t11.5 44t47.5 56.5q23 39 76 47q25 4 47 -2l137 112q195 162 355 291q27 23 147 99q152 100 178 84 q10 0 -25.5 -68t-94 -156t-101.5 -141q-66 -76 -165 -193.5t-109 -130.5l-111 -133q4 -12 4 -24q0 -27 -30 -95q-31 -37 -82 -49q-23 -6 -39 -6l-25 -31q-29 -37 -33 -47z" />
<glyph unicode=":" d="M227 367l29 -45l193 157l-166 -172l30 -35l232 250l-223 -262l176 121l-146 -139l23 -21l82 68l-60 -90l21 -29l219 295l-201 -311l17 -27l133 145l-111 -157l197 219l-174 -242l16 -14l154 186l-127 -203l12 -18l313 385l-258 258zM645 725l694 563q23 18 47.5 35.5 t55.5 36t43 26.5q154 98 178 84q8 -2 -15.5 -54t-69.5 -125.5t-89 -125.5l-584 -702z" />
<glyph unicode=";" d="M125 596l350 313l561 -534l-352 -342l-20 28l225 287l-250 -266l-21 14l179 207l-205 -186l-27 26l86 93q98 106 137 141l33 26q-2 0 -6 -3t-11 -10t-16 -13l-237 -211l-12 20l129 150l-150 -133l-16 24l129 183l-150 -172l43 98l-63 -74l-21 21l217 282l-233 -268 l-12 18l118 187l-141 -170l-18 10l164 223l-183 -203l101 148l-121 -133l-17 24l187 287l-203 -272l-20 24l57 84l-78 -63l-20 20l133 129l-160 -114l207 243l-215 -229l-29 33l154 155l-176 -143zM512 961q4 0 47 55l45 53q25 27 53 33q70 8 148 -96q104 -90 186 -37 q35 23 60 65l272 396q37 55 186 55q63 0 142 -12q12 -61 12 -119q4 -135 -55 -197l-398 -248q-35 -20 -71 -75q-57 -94 22 -177q33 -18 47 -43q31 -59 -30 -118l-50 -47l-51 -52zM1460 1333.5q0 -22.5 13.5 -37t36 -14.5t38 14.5t15.5 36.5q0 20 -15.5 34.5t-38 14.5 t-36 -13t-13.5 -35.5z" />
<glyph unicode="&#x3c;" d="M72 786q-10 23 18 52l635 635q18 18 35 18q31 0 31 -80v-317l788 2q78 0 113 -64q14 -27 18 -63v-334q0 -82 -61 -115q-27 -16 -62 -18h-796v-309q0 -39 -9 -58q-18 -53 -59 -8l-633 637q-12 8 -18 22z" />
<glyph unicode="=" d="M154 535l125 167q4 6 17 21.5t19 21.5q43 39 82 11l244 -224q45 -63 94 -45q20 10 41 31l580 940q20 27 43 35q53 27 112 -25l109 -63q23 -14 41 -33q35 -43 14 -78l-653 -1140q-16 -31 -41 -56q-55 -55 -123 -55h-98q-18 -2 -39 6q-41 8 -80 47l-436 332q-29 18 -37 29 q-32 41 -14 78z" />
<glyph unicode="&#x3e;" d="M92 594v334q4 37 19 63q35 63 112 64l789 -2v317q-8 80 28 80q12 0 35 -18l649 -635q27 -25 17 -52q-6 -14 -19 -22l-645 -637q-41 -41 -57 8q-8 18 -8 58v309h-797q-35 2 -61 18q-62 33 -62 115z" />
<glyph unicode="?" d="M264 776q0 283 200 481.5t480.5 198.5t480 -198.5t199.5 -481.5q0 -281 -199.5 -480.5t-480 -199.5t-480.5 199.5t-200 480.5zM750 838l24 8q16 4 27 4q43 0 51 -8q14 -14 14 -33q0 -10 -2 -21q-4 -20 -8 -32l-47 -109q0 -6 -2 -24.5t-4 -24.5q0 -4 -1 -14.5t-1 -16.5 q0 -29 35 -59q25 -25 75 -25q23 0 56 9q6 2 23.5 5t31.5 9l8 35q-14 -6 -45 -6q-10 0 -31 14q-12 8 -12 33q0 20 4 45q4 20 8 32l45 109q4 10 9 35q0 8 1 17t1 11q0 29 -41 66q-23 23 -74 23q-31 0 -57 -9q-68 -20 -86 -28zM905 1053q0 -33 23 -56q29 -25 57.5 -24.5 t56.5 24.5q23 23 23 55.5t-23 55.5q-27 23 -57 22q-29 0 -57 -24q-23 -22 -23 -53z" />
<glyph unicode="@" d="M43 322q0 -35 12 -62q29 -59 101 -59h1472q27 0 55 14q57 33 66 104v795l-352 -301l231 -487l-307 422l-240 -209q-31 -31 -61 -56q-74 -53 -129 -43q-35 4 -62 15q-76 29 -118 90l-240 203l-305 -420l240 477l-363 309v-792zM47 1178q-8 74 51 106q29 14 56 14h1478 q72 0 101 -61q10 -25 14 -61l-727 -607q-66 -88 -158 -51q-31 10 -82 51z" />
<glyph unicode="A" d="M70 354l2 820q-3 13 -4 22q0 14 8 17q12 7 30 -7q2 0 50 -39l344 -282q49 -31 49 -64q0 -16 -10 -24l-336 -373q-76 -110 -109 -111q-4 0 -8 2q-16 6 -16 39zM117 1323q0 35 80 35h1409q16 0 57 -10q27 -9 27 -24q0 -13 -21 -30l-735 -600q-6 -8 -19 -16q-27 -8 -43 16 l-737 598q-18 19 -18 31zM156 199q-10 10 -10 23q0 34 57 95l399 441q16 16 31 16q41 0 104 -84l133 -133q10 -10 21 -12q25 -8 45 12l135 133q27 35 55 55q33 24 54 25q16 0 24 -14l400 -441q37 -43 51 -67q9 -19 9 -32q0 -33 -58 -34h-1401q-33 1 -49 17zM1257 821 q0 33 48 64l346 282q47 39 49 39q13 10 22 10q4 0 8 -2q7 -4 7 -19q0 -9 -2 -21l2 -820q0 -33 -17 -39q-4 -2 -8 -2q-33 0 -108 111l-338 373q-9 8 -9 24z" />
<glyph unicode="B" d="M219 195q0 12 8.5 39.5t27.5 65.5t64.5 65.5t106.5 27.5q41 0 76 -6q23 -4 37 -9t24 -13.5t10 -20.5v864q4 27 19 47q37 49 131 60l719 155q19 6 33 6q11 0 20 -3q47 -14 47 -84q0 -13 -2 -27v-971q0 -70 -71.5 -134t-190.5 -64q-49 0 -87 15t-57.5 34.5t-33 44t-16.5 39 t-3 22.5q0 18 14.5 60.5t66.5 91.5t128 49q41 0 76 -6q23 -4 37 -9.5t24.5 -14.5t10.5 -21l2 659q0 27 -19 49q-26 26 -76 27q-28 0 -63 -8l-508 -123q-29 -6 -49 -19q-47 -31 -47 -82v-761q0 -72 -71.5 -136.5t-192.5 -64.5q-49 0 -87 15.5t-57.5 35t-32 44t-15.5 39 t-3 22.5z" />
<glyph unicode="C" d="M317 233v969q0 61 42 103.5t104 42.5h678q31 0 47 -37q6 -20 4 -37q0 -33 -29 -53q-12 -12 -26 -19h-625q-20 0 -34.5 -14t-14.5 -33v-872q0 -20 14.5 -35t34.5 -15h872q20 0 35 14.5t15 35.5v632q0 12 12 29q20 29 61 29l35 -12q37 -25 37 -46v-682q0 -61 -42 -103 t-103 -42h-971q-61 0 -103.5 42t-42.5 103zM805 575l20 84l74 -69zM860 709l64 161l415 412l183 -174l-412 -399l-170 -91zM1382 1323l82 86q16 15 31 15q8 0 16.5 -4.5t20.5 -16.5l102 -109q15 -16 15 -31q0 -6 -2 -12q-4 -10 -11 -16l-82 -82z" />
<glyph unicode="D" d="M137 1307q0 133 78 163q23 9 50 10q15 0 32 -3q74 0 102 -58q12 -20 17 -57l22 -117h1051h4q62 0 90 -55q12 -20 16 -55l-2 -410q0 -70 -55 -98q-23 -10 -55 -15l-979 -2l24 -114h883q2 0 16.5 1t17.5 0t13.5 -6.5t13.5 -14.5t6 -26.5t3 -41.5q0 -31 -5 -49.5 t-18.5 -25.5t-19.5 -8t-27 -1h-977q-25 0 -42 17t-17 42q0 35 -74 473l-74 451h-94zM475 1014l23 -174q0 -23 17 -39.5t40 -16.5h815q23 0 40 16.5t17 39.5v174q0 27 -17 43t-40 16h-835q-27 0 -43.5 -16t-16.5 -43zM502 153.5q0 49.5 31.5 81t82.5 31.5q49 0 82 -31.5 t33 -81t-33.5 -83t-81.5 -33.5q-49 0 -81.5 33.5t-32.5 83zM1137 154q0 47 34.5 79.5t81.5 32.5q49 0 84 -32.5t35 -79.5q0 -51 -34.5 -85t-84 -34t-83 34t-33.5 85z" />
<glyph unicode="E" d="M139 1300q0 104 70 150q35 20 67 20q2 0 4 1q66 0 107 -87q16 -33 27 -86l22 -57l1051 2q61 0 90 -59q16 -33 16 -60v-395q0 -72 -53 -96q-33 -14 -55 -15l-987 -2l26 -112h959q20 0 37.5 -30t17.5 -56.5t-17.5 -56t-37.5 -29.5h-1032q-20 0 -38 43t-18 71q0 10 -69 437 l-72 417h-115zM442 1014q0 -23 16.5 -39.5t39.5 -16.5h55q23 0 39 16.5t16 39.5v57q0 23 -16.5 40t-38.5 17h-55q-23 0 -39.5 -17t-16.5 -40v-57zM498 162q0 49 29.5 80.5t76.5 31.5t79 -31.5t32 -80.5q0 -47 -33 -81t-78 -34t-75.5 34t-30.5 81zM498 786q0 -25 15 -40 t38 -15h2q23 0 39 15.5t16 39.5v58q0 23 -16.5 40t-38.5 17h-2q-23 0 -38 -17.5t-15 -39.5v-58zM662 786q0 -25 16 -40t39 -15h55q23 0 38 15.5t15 39.5v58q0 23 -16 40t-37 17h-55q-23 0 -39 -17.5t-16 -39.5v-58zM662 1014q0 -23 16 -39.5t39 -16.5h55q23 0 38 16.5 t15 39.5v57q0 23 -16 40t-37 17h-55q-23 0 -39 -17t-16 -40v-57zM881 786q0 -25 15 -40t38 -15h55q25 0 41.5 15.5t16.5 39.5v58q0 23 -17.5 40t-40.5 17h-55q-20 0 -36.5 -17.5t-16.5 -39.5v-58zM881 1014q0 -23 15 -39.5t38 -16.5h55q23 0 40.5 16.5t17.5 39.5v57 q0 23 -17.5 40t-40.5 17h-55q-20 0 -36.5 -17t-16.5 -40v-57zM1098 162q0 47 31.5 79.5t80.5 32.5q47 0 79 -32.5t32 -79.5q0 -49 -32 -82t-79 -33q-49 0 -80.5 33t-31.5 82zM1100 786q0 -25 16.5 -40t38.5 -15h55q23 0 38.5 15.5t15.5 39.5v58q0 23 -16.5 40t-37.5 17h-55 q-23 0 -39 -17.5t-16 -39.5v-58zM1100 1014q0 -23 16.5 -39.5t38.5 -16.5h55q23 0 38.5 16.5t15.5 39.5v57q0 23 -16.5 40t-37.5 17h-55q-23 0 -39 -17t-16 -40v-57zM1319 786q0 -25 15.5 -40t37.5 -15h55q23 0 39.5 15.5t16.5 39.5v58q0 23 -16.5 40t-39.5 17h-55 q-20 0 -36.5 -17.5t-16.5 -39.5v-58zM1319 1014q0 -23 15.5 -39.5t37.5 -16.5h55q23 0 39.5 16.5t16.5 39.5v57q0 23 -16.5 40t-39.5 17h-55q-20 0 -36.5 -17t-16.5 -40v-57z" />
<glyph unicode="F" d="M51 1063q0 213 150 289q63 31 149 34q3 0 5 1q203 0 276 -160q31 -66 35 -166q0 193 149 280q70 41 154 48q205 0 286 -166q33 -72 33 -166l12 -49q55 0 82 -52q8 -29 9 -47v-65l63 2l315 160v-760l-313 178h-65l2 -184q0 -55 -47 -76q-14 -8 -48 -12h-1034q-55 0 -86 51 q-12 20 -18 51v596q-66 45 -97 139q-12 37 -12 74zM213 1057q0 -70 45 -113t117 -43q6 0 20.5 1t22.5 1q14 0 20 2h455q8 -2 25 -2q8 0 24 -1t23 -1q72 0 117.5 43t45.5 113q0 72 -46 121t-115.5 49t-116.5 -48.5t-47 -117.5q0 -35 8 -49h-289q12 23 13 51q0 70 -48.5 117 t-117.5 47q-68 0 -112 -49t-44 -121zM373 553q0 -78 55 -133t135 -55q78 0 133.5 55t55.5 133t-55.5 134t-133.5 56q-80 0 -135 -56t-55 -134zM535 555q0 29 28.5 29t28.5 -29q0 -10 -9.5 -19.5t-19.5 -9.5q-28 0 -28 29zM854 553q0 -78 56.5 -133t136.5 -55q78 0 133 55 t55 133t-55.5 134t-132.5 56q-80 0 -136.5 -56t-56.5 -134zM1016 555q0 29 31 29q29 0 28 -29q0 -10 -9 -19.5t-19 -9.5q-31 0 -31 29z" />
<glyph unicode="G" d="M240 748q0 285 199.5 484.5t482.5 199.5q297 0 490.5 -198t193.5 -486q0 -283 -200 -482.5t-484 -199.5q-283 0 -482.5 199.5t-199.5 482.5zM350 928q0 -6 4 -27.5t2 -32.5q-6 -29 -4 -39q4 -16 15 -28q6 -6 10 -17l26 -30q0 -6 5 -23q8 -27 16 -33q8 -10 0 -22l-10 -10 l-6 -31q-6 -33 -5 -45q10 -66 23 -86q4 -8 39 -25l31 -14q12 -8 16 -12q16 -16 16 -25q0 -25 23 -51q2 -4 28.5 -32t22.5 -44q-2 -12 1 -17t8 -11.5t10 -16.5q10 -29 55 -39l10 41q12 45 6 51q-12 25 -14 31l-8 18l2 52l6 12q12 16 18 22q16 12 33 45q31 55 35 74 q0 4 12 24.5t15.5 33t-7.5 28.5q-14 14 -88 35q-80 16 -84 39q-10 14 -34.5 14t-42.5 -8q-20 -10 -45 -14t-35 8q-4 12 -18.5 27.5t-16.5 23.5q0 6 12 9t17 16q4 18 -9.5 24t-31.5 -4q-12 -4 -18.5 -1t-6.5 11.5t8 12.5q6 2 24.5 15t34 21.5t19.5 2.5q1 -12 18 -13 q14 0 39 9q31 14 35 -17q6 -31 35 -51q10 -6 10 0q0 2 2 18.5t3 28.5t-3 25q-6 16 -12 22q0 4 -6 10q10 0 31 5q33 8 43 30q8 20 12 41t6 25q4 14 0 24.5t-16 8.5q-4 0 -7 6q-6 16 15 24h12q18 -4 19 -16l-7 -10q10 -23 11 -25q12 -20 20 -6q4 6 12.5 16.5t15.5 19.5t13 18 t5 16.5t-9 9.5q-10 4 -21.5 34.5t-54.5 34.5q-18 2 -34 3q-26 0 -44 -7q-6 0 -13 -2t-9 -2l6 -22l4 -4q2 -4 2 -15q0 -8 -22 -8q-8 -2 -21 0l-4 10q-4 16 -2 21l8 20l4 13l25 32q2 -2 6 -2q10 0 22 -4q6 -2 31 -2l21 6l-17 64q-57 -23 -108 -68q-125 -100 -195 -274z M729 1263q0 -47 82 -130q12 -14 21 -15q15 0 22 41q4 27 0 35q-2 4 8 17.5t22.5 33t14.5 31.5q2 16 21.5 26.5t27.5 22.5q-4 8 -43 12q-11 1 -23 2q-31 0 -68 -8q-52 -10 -81 -39q0 -4 -1 -12q0 -3 -1.5 -8t-1.5 -9zM971 1098q16 -25 35 -27q4 0 6 4q14 41 -21 45 q-8 0 -14 -6q-8 -5 -8 -11q0 -2 2 -5zM989 569q4 -35 17.5 -57.5t44.5 -19.5q35 2 48 4t20 3t26.5 8t44.5 13q23 12 39 12q22 0 33 -20q6 -10 10 -37l-6 -82l-11 -49q-4 -12 -4 -18q0 -20 21 -41q57 47 108 112q113 139 125 303q-20 0 -41 17q-8 12 -14 18l-49 56h82 q0 -2 2 -3l4 -2q6 0 16 -6q6 7 6 25q0 33 -20 101q-31 105 -64 167q-8 35 -26 25q6 4 26 -25q4 -12 5 -37q0 -12 2 -18l-66 6q-4 10 -16 23q-16 20 -39 12q-10 -6 -20.5 -18.5t-37.5 -16.5q-25 -2 -55.5 25.5t-46.5 15.5t-33.5 -12t-21.5 -17q-6 -23 -2 -49l2 -24l-64 4 q-25 -10 -24 -52q0 -18 6 -38q14 -4 39 -9q14 -3 26 -2q25 0 43 11q33 18 50 43q12 16 16 24l76 -92q16 -10 28 16q6 8 11 27q-20 33 -13 57q2 6 13 17l71 -33l49 -55l-8 -41l-88 -33q-10 -27 -24 -39q-15 -12 -35 -12q-33 0 -80 32q-70 8 -94 9h-17q-73 0 -73 -33 q0 -25 -6.5 -48.5t-4.5 -62.5q-7 -39 -6 -69v-15zM1038 1130q-2 -11 -2 -18q0 -13 6 -18q24 -17 48 -17h6q12 0 2 10q-23 23 -17 50l11 43q-2 4 -7 2q-29 -10 -36 -25q-9 -21 -11 -27zM1171 1161q-4 -20 19 -35q10 -6 22 -6q18 0 37 6q39 27 56 86q-29 29 -61 48 q-26 15 -36 15q-2 0 -4 -1l-6 -37l-2 -18z" />
<glyph unicode="H" d="M184 223v1059q0 70 48.5 119t117.5 49h1174q70 0 118 -49t48 -119v-1059q0 -70 -48.5 -119t-117.5 -49h-1174q-70 0 -118 49t-48 119zM295 287q0 -82 82 -111q25 -8 84 -8h121q23 0 39 17.5t16 41.5q0 23 -16.5 39.5t-38.5 16.5h-121q-35 0 -47 30q-6 12 -6 31v107 q0 25 -15.5 39t-40 14t-41 -14.5t-16.5 -38.5v-164zM295 668q0 -25 17.5 -41.5t40 -16.5t39 16.5t16.5 41.5v233q0 23 -16.5 39t-39 16t-40 -16t-17.5 -39v-233zM295 1114q0 -55 51 -55q25 0 43.5 15.5t18.5 39.5v66q0 37 28 45q14 6 29 4h106q23 0 39.5 18.5t16.5 42.5 q0 49 -56 49h-145q-80 0 -117 -79q-14 -35 -14 -80v-66zM606 713q0 -8 6 -13l301 -309q10 -6 21 -4l10 4l320 311q16 16 -2 21q-6 2 -25 2h-160v281q0 16 -8 26q-14 29 -47 29h-170q-14 0 -27 -6q-29 -14 -28 -45v-285h-156q-35 0 -35 -12zM735 227q0 -25 17.5 -42t40.5 -17 h288q23 0 37.5 17.5t14.5 41.5q0 23 -14.5 39.5t-37.5 16.5h-288q-23 0 -40.5 -16.5t-17.5 -39.5zM735 1286q0 -25 16.5 -42t39.5 -17h290q23 0 39.5 16.5t16.5 40.5q0 23 -16.5 39t-39.5 16h-290q-23 0 -39.5 -15t-16.5 -38zM1241 227q0 -25 16.5 -40t40.5 -15h148 q82 0 117 82q16 45 16 80v117q0 25 -16.5 41t-38.5 16q-25 0 -41.5 -16.5t-16.5 -40.5l2 -115q0 -35 -32 -47q-14 -8 -31 -6h-107q-25 0 -41 -16.5t-16 -39.5zM1241 1286q0 -25 16.5 -42t38.5 -17h119q31 0 47 -29q6 -14 6 -29v-55q0 -25 15.5 -40t40.5 -15q23 0 39 15.5 t16 39.5v109q0 82 -82 110q-25 8 -82 8h-119q-23 0 -39 -16t-16 -39zM1468 664q0 -25 15.5 -40.5t40.5 -15.5q23 0 39 15.5t16 40.5v231q0 25 -16.5 40t-38.5 15q-25 0 -40.5 -15t-15.5 -40v-231z" />
<glyph unicode="I" d="M164 223v1059q0 70 48 119t118 49h1173q70 0 118 -49t48 -119v-1059q0 -70 -48 -119t-118 -49h-1173q-70 0 -118 49t-48 119zM274 287q0 -82 82 -111q25 -8 84 -8h121q23 0 39 17.5t16 41.5q0 23 -16 39.5t-39 16.5h-121q-35 0 -47 30q-6 12 -6 31v107q0 25 -15.5 39 t-40 14t-41 -14.5t-16.5 -38.5v-164zM274 668q0 -25 17.5 -41.5t40 -16.5t39 16.5t16.5 41.5v233q0 23 -16.5 39t-39 16t-40 -16t-17.5 -39v-233zM274 1114q0 -55 52 -55q25 0 43 15.5t18 39.5v66q0 37 29 45q14 6 28 4h107q23 0 39 18.5t16 42.5q0 49 -55 49h-145 q-80 0 -117 -79q-14 -35 -15 -80v-66zM586 793q0 -12 35 -13h155v-284q0 -31 29 -45q12 -6 26 -7h170q35 0 48 27q8 10 8 29v280h160q18 0 24 2q18 4 2 21l-319 311l-11 4q-10 2 -20 -4l-301 -309q-6 -6 -6 -12zM715 227q0 -25 17.5 -42t39.5 -17h289q23 0 37 17.5t14 41.5 q0 23 -14.5 39.5t-36.5 16.5h-289q-23 0 -40 -16.5t-17 -39.5zM715 1286q0 -25 16.5 -42t38.5 -17h291q23 0 39 16.5t16 40.5q0 23 -16.5 39t-38.5 16h-291q-23 0 -39 -15t-16 -38zM1221 227q0 -25 16 -40t41 -15h147q82 0 117 82q16 45 17 80v117q0 25 -16.5 41t-39.5 16 q-25 0 -41 -16.5t-16 -40.5l2 -115q0 -35 -33 -47q-14 -8 -31 -6h-106q-25 0 -41 -16.5t-16 -39.5zM1221 1286q0 -25 16 -42t39 -17h119q31 0 47 -29q6 -14 6 -29v-55q0 -25 15.5 -40t39.5 -15q23 0 39.5 15.5t16.5 39.5v109q0 82 -82 110q-25 8 -82 8h-119q-23 0 -39 -16 t-16 -39zM1448 664q0 -25 15.5 -40.5t39.5 -15.5q23 0 39.5 15.5t16.5 40.5v231q0 25 -16.5 40t-39.5 15q-25 0 -40 -15t-15 -40v-231z" />
<glyph unicode="J" d="M500 195v1155q0 63 45 107t108 44h602q63 0 108.5 -44t45.5 -107v-1160q0 -63 -45 -107t-109 -44h-602q-63 0 -108 45t-45 111zM600 342h707v1008h-707v-1008zM852 1401h203v49h-203v-49zM905 190.5q0 -20.5 14.5 -36t35 -15.5t35 15.5t14.5 36t-14.5 36t-35 15.5 t-35 -15.5t-14.5 -36z" />
<glyph unicode="K" d="M332 221v1098q0 61 42 103t101 42h959q59 0 101 -42t42 -103v-1098q0 -61 -42 -103t-101 -42h-959q-59 0 -101 42t-42 103zM475 268h959v1051h-959v-1051zM907 172.5q0 -20.5 13.5 -35t34 -14.5t33.5 14.5t13 35t-13 34.5t-33.5 14t-34 -14t-13.5 -34.5z" />
<glyph unicode="L" d="M106 276v519q0 37 154 231l67 80q56 68 91 106q29 33 71 45q18 6 37 7h777q39 0 73 -27q16 -10 29 -27q80 -90 156 -184q156 -197 155 -231v-519q0 -43 -29.5 -73.5t-72.5 -30.5h-1403q-45 0 -75 30.5t-30 73.5zM256 795h471q10 0 27 -7q27 -14 26 -51v-96q0 -14 6 -27 q12 -27 45 -26h160q14 0 25 8q27 12 26 45v107q4 16 9 22q16 25 45 25h469l-211 315q-12 18 -33 39l-16 10h-781q-10 0 -39 -24l-16 -25zM418 848q0 14 6 26q16 29 45 29h881l24 -12q27 -14 27 -41zM471 954q0 12 6 25q16 25 43 25h783q16 -4 24 -11q27 -14 27 -37z M522 1057q0 12 6 24q18 27 45 27h676q2 0 27 -10q27 -18 27 -39z" />
<glyph unicode="M" d="M143 238v843q0 18 52.5 61.5t119.5 84.5q6 4 72 43t105 59q16 20 65 43q18 6 35 6h643q35 0 72 -24l26 -25q90 -51 174 -104q172 -106 172 -144v-843q0 -41 -28.5 -70t-69.5 -29h-1339q-41 0 -70 29t-29 70zM242 287q0 -20 15 -34.5t36 -14.5h1239q20 0 34.5 14t14.5 35 v297v151v297l-14 25q-16 25 -35 24h-1239q-20 0 -35.5 -14t-15.5 -35v-297v-151v-297zM289 287v348h495q0 -16 7 -25q14 -27 45 -26h151q27 0 45 26q6 16 6 27l494 -2v-348h-1243zM289 684v348h495q0 -14 7 -26q16 -25 45 -25h151q27 0 45 27q6 12 6 26l494 -2v-348h-1243z M737 436.5q0 -20.5 15.5 -36t35.5 -15.5h248q20 0 35.5 15.5t15.5 36t-15 34.5t-36 14h-248q-20 0 -35.5 -14t-15.5 -34.5zM737 833.5q0 -20.5 15.5 -36t35.5 -15.5h248q20 0 35.5 15.5t15.5 36t-15 35t-36 14.5h-248q-20 0 -35.5 -14.5t-15.5 -35z" />
<glyph unicode="N" d="M84 373v944l498 -166l-7 -934zM141 825l60 -59q18 -18 41 0q18 20 0 39l-62 61q-18 18 -39 0q-9 -11 -9 -21.5t9 -19.5zM307 659l62 -59q18 -23 37 0q20 18 0 39l-60 59q-18 18 -39 0q-8 -9 -8 -19t8 -20zM414 514q0 -12 9 -20.5t19 -8.5h62q29 0 28 29q0 27 -28 27h-62 q-10 0 -19 -8.5t-9 -18.5zM637 209v938l385 174l-2 -938zM694 487q23 -18 41 0l60 60l4 14q4 18 -4 27q-20 18 -39 0l-62 -62q-9 -9 -9 -19t9 -20zM862 653q18 -18 39 0l62 60l2 16q4 16 -2 23q-20 20 -41 0l-60 -60q-9 -10 -9 -20t9 -19zM1079 373l4 946l162 -166v-532 q0 10 -6 18l-59 59q-23 23 -41 0q-20 -18 0 -39l59 -59q20 -18 41 0q6 10 6 18v-413zM1245 618v3v-3zM1305 211v938l438 115l-2 -928zM1360 653q10 -9 20 -9l21 9l59 60l4 16q4 18 -4 23q-18 23 -39 0l-61 -60q-8 -10 -8 -20t8 -19zM1528 821q9 -11 18 -11l19 11l61 58l4 16 q2 14 -4 25q-10 8 -20 8t-19 -8l-59 -62q-11 -9 -11 -18.5t11 -18.5z" />
<glyph unicode="O" d="M408 330v643q0 20 13 33.5t34 13.5h1058q20 0 34 -13.5t14 -33.5v-643q0 -20 -13.5 -33.5t-34.5 -13.5h-460v-97l90 -129h-316l88 133v93h-460q-20 0 -33.5 13.5t-13.5 33.5zM547 422h876v459h-876v-459zM752 1251l137 -37v269h184v-271l139 35l-233 -190z" />
<glyph unicode="P" d="M186 422q0 -86 60 -146l182 -182q59 -59 145 -59t146 59l219 219q59 59 59 145.5t-59 145.5l-113 -112q4 -14 4 -29q0 -41 -36 -78l-148 -143q-29 -31 -72 -31t-71 31l-109 108q-31 29 -31 72t31 72l144 147q35 35 76 35q15 0 30 -4l113 114q-59 59 -145.5 59.5 t-145.5 -59.5l-219 -219q-60 -59 -60 -145zM641 568.5q0 -31.5 23 -56.5q25 -23 56.5 -23t53.5 23l365 365q23 23 22.5 54.5t-22.5 55.5q-25 23 -56.5 23t-54.5 -23l-364 -364q-23 -23 -23 -54.5zM805 1040q0 86 59 146l219 219q59 59 145.5 59t145.5 -59l182 -182 q59 -59 59.5 -145.5t-59.5 -145.5l-219 -219q-59 -59 -145 -59.5t-145 59.5l112 112q14 -4 28 -4q41 0 79 37l143 148q31 29 31 71.5t-31 71.5l-109 108q-29 31 -71.5 31t-71.5 -31l-147 -143q-35 -35 -35 -77q0 -15 4 -29l-115 -113q-59 59 -59 145z" />
<glyph unicode="Q" d="M76 561.5q0 104.5 74 175.5l434 437q74 72 177 71.5t175 -71.5l176 -177q72 -74 72 -177t-72 -175l-141 107q16 38 16 73q0 62 -51 113l-59 59q-47 47 -116 47t-118 -47l-319 -319q-47 -47 -47.5 -115.5t47.5 -118.5l75 -79q43 -50 94 -51h6q54 3 126 67l100 117 l121 -117l-168 -172q-72 -74 -176.5 -74t-177.5 74l-174 176q-74 72 -74 176.5zM705 719.5q0 103.5 73 177.5l127 -129q0 -6 -6 -30.5t-3 -33t19.5 -31t53.5 -48.5l49 -82q47 -47 116.5 -47t116.5 47l287 299q47 47 47 116.5t-47 116.5l-57 60q-49 49 -119 50h-3 q-68 0 -114 -50l-53 -58l-117 111l49 51l19 18l15 16q9 9 12.5 13t0.5 4q72 72 175.5 72t175.5 -72l176 -176q64 -89 64 -177q0 -36 -11 -73q-14 -51 -53 -102l-393 -395q-72 -72 -175.5 -72t-175.5 72l-176 176q-73 73 -73 176.5z" />
<glyph unicode="R" d="M281 209v1020q0 41 28.5 69.5t69.5 28.5h96v-51q0 -92 72 -127q31 -14 74 -19q90 0 127 74q16 33 16 74v49h391l2 -51q2 -92 74 -127q31 -14 69 -19q90 0 127 74q18 37 19 74v49h98q41 0 68.5 -28.5t27.5 -69.5v-1020q0 -41 -27.5 -68.5t-68.5 -27.5h-1165 q-41 0 -69.5 27.5t-28.5 68.5zM379 209h1165v778h-1165v-778zM524 1278v96q0 41 28 70t69 29t69.5 -29t28.5 -70v-96q0 -39 -28.5 -67.5t-69.5 -28.5q-39 0 -68 27.5t-29 68.5zM668 610v88q51 33 63 41q35 27 47 54h86v-392h-100v265q-31 -18 -35 -21l-20 -12l-11 -4z M958 696v99h295v-93q-70 -59 -79 -75q-18 -27 -39 -99q-14 -45 -21 -127h-104q10 100 39 166q18 47 86 129h-177zM1204 1278v96q0 41 28 70t68.5 29t69.5 -29t29 -70v-96q0 -41 -29 -68.5t-70 -27.5q-39 0 -67.5 27.5t-28.5 68.5z" />
<glyph unicode="S" d="M252 757.5q0 286.5 203.5 490.5t490.5 204t490.5 -204t203.5 -490.5t-203.5 -490.5t-490.5 -204t-490.5 204t-203.5 490.5zM389 757.5q0 -231.5 163 -394t394.5 -162.5t394 162.5t162.5 394t-162.5 393.5t-394 162t-394.5 -162t-163 -393.5zM872 758v96v334q0 31 23 52.5 t51.5 21.5t50 -21.5t21.5 -52.5v-357h262q31 -2 51.5 -23.5t20.5 -50t-20.5 -50t-51.5 -21.5h-334q-29 0 -51.5 21.5t-22.5 50.5z" />
<glyph unicode="T" d="M201 510q2 2 5 7t15 11.5t27 6.5l158 -39l438 419q-502 236 -602 293q-4 2 -9.5 6.5t-14.5 19.5t1 36q2 4 7 9t21.5 12t35.5 -11l235 -33l94 107q20 25 40 35t30 8h10q25 -13 26 -34q0 -16 -16 -36l-65 -90l203 -27l92 101q12 23 28.5 31t26.5 6l10 -5q25 -6 33 -18 t4 -20l-4 -9l-76 -110l187 -39l329 258q6 6 18.5 13t53.5 18q13 3 26 3q28 0 54 -16q13 -29 13 -56q0 -39 -25 -75l-332 -301l33 -196l88 36q20 20 40.5 23.5t30.5 -2.5l13 -6q12 -16 12 -33q0 -30 -37 -63l-127 -80l12 -189l101 47q23 14 39 14.5t22 -5.5l6 -9q8 -20 8 -36 q0 -35 -36 -50l-129 -104l10 -131q6 -4 6 -34q0 -18 -2 -45q-4 -50 -28 -50q-11 0 -25 10l-297 680l-490 -436l35 -144l-39 -43q-20 -23 -39.5 -23.5t-29.5 9.5l-11 8q-12 43 -35.5 87t-41.5 65l-19 22q-25 27 -86 60t-74 45q-6 6 -13 14q-6 7 -6 27q0 30 32 51z" />
<glyph unicode="U" d="M449 326q0 111 67.5 191.5t157.5 80.5q51 0 96 -29l59 107q-16 20 -65 86.5t-76 101.5l-96 123q-70 90 -105.5 186.5t-35.5 260.5q0 31 22 45q6 4 25 8l440 -643l14 4l439 641q14 0 20 -6q23 -12 23 -45q0 -168 -20.5 -244t-84.5 -156l-282 -364l71 -105q45 29 96 29 q90 0 158 -81t68 -191q0 -115 -67.5 -195t-158 -80t-154 80t-63.5 195q0 90 41 159l-98 105l-94 -96l4 -9q41 -70 41 -159q0 -115 -63.5 -195t-153.5 -80t-157.5 80t-67.5 195zM590 321.5q0 -51.5 24.5 -87t59.5 -35.5q33 0 56.5 35.5t23.5 87t-23.5 87t-56.5 35.5 q-35 0 -59.5 -35.5t-24.5 -87zM1135 321.5q0 -51.5 23.5 -87t55.5 -35.5q35 0 59.5 35.5t24.5 87t-24.5 87t-59.5 35.5q-33 0 -56 -35.5t-23 -87z" />
<glyph unicode="V" d="M223 401v170q0 49 25 74q10 12 24 19l164 213q16 41 62 51q18 6 43 6l794 -2q33 0 74 -27q16 -12 23 -28l167 -213q27 -35 43 -72q8 -20 11 -29v-162q0 -59 -56 -90q-25 -12 -55 -12h-207l-2 102q0 14 -6 27q-16 29 -47 29l-629 2q-18 -4 -28 -8q-29 -12 -29 -48l-2 -104 l-270 -2q-70 0 -91 51q-8 22 -8 53zM541 112.5q0 26.5 26 26.5h793q27 0 26.5 -26.5t-26.5 -26.5h-793q-26 0 -26 26.5zM592 193l106 213l531 -3l108 -210h-745zM700 985v424q-2 10 5 27q12 27 49 26h260l215 -209v-268h-529zM965 1249q0 -31 22 -45q12 -6 27 -6h116 q18 0 29 3q12 3 12 10q0 3 -2 8q-2 4 -18 20l-150 152q-13 13 -22 13t-14 -13q-1 -7 -1 -16t1 -19v-107z" />
<glyph unicode="W" d="M178 932q29 31 72 43q18 6 39 6h370q25 0 43 27q8 16 9 28l110 373q35 84 82 96q31 -12 66 -96l110 -373q0 -12 8 -28q18 -27 43 -27h371q18 0 41 -6q41 -10 70 -43q-6 -8 -19 -17q-35 -23 -88 -45l-323 -206q-10 -6 -11 -23q-3 -9 -3 -20q0 -25 16 -60l155 -375l9 -51 q4 -55 -9 -55q-57 23 -241 176q-84 66 -174 143q-20 29 -39 19q-8 -6 -15 -17l-190 -163q-188 -160 -223 -160q-12 2 -8 57q0 25 6 53l157 375q22 41 23 69q0 8 -2 15q-4 10 -17 17l-331 206q-41 14 -86 43q-15 9 -21 19zM395 901q2 -6 15 -18q23 -23 59 -35l231 -146 q14 -6 21 -26q7 -13 6 -26q0 -19 -14 -38l-95 -215l-34 -73q-14 -31 -22.5 -53.5t-4.5 -24.5q23 0 172 137l148 137l12 12q12 6 26 -14q27 -25 74 -68.5t66 -62.5q139 -127 190 -151q6 4 -33 81q-10 20 -41 80l-86 211q-15 19 -14 41q0 12 4 25q6 16 19 28l227 146 q53 35 61 41l19 14q-16 18 -51 27q-14 4 -31 0h-260q-16 0 -33 24q-8 16 -10 27l-70 240q-25 90 -41 114q-6 16 -12 17h-2q-4 0 -10 -17q-10 -20 -37 -114l-70 -244q-2 -6 -10 -25q-16 -25 -33 -24h-260q-12 2 -27 0q-33 -9 -49 -27zM897 1507h12l-6 -2l-4 2h-2z" />
<glyph unicode="X" d="M266 344q-5 17 -5 34q0 46 38 85l315 313l-239 240l-72 71q-23 23 -33 56q-7 19 -7 37q0 42 36 82q61 66 90 94l45 45q23 23 49 29q17 5 35 5q45 0 94 -34l316 -318l303 316q18 18 55 35q19 7 38 6q43 0 79 -37l135 -143q18 -18 31 -56q6 -19 6 -37q0 -46 -41 -88 l-299 -305l309 -313q23 -23 33 -55q5 -16 5 -33q0 -46 -44 -88l-133 -127q-27 -23 -55 -33q-19 -6 -37 -6q-46 0 -86 39l-312 307l-311 -307q-23 -23 -55 -33q-16 -5 -32 -5q-46 0 -91 44l-127 129q-23 18 -33 51z" />
<glyph unicode="Y" d="M340 115v1323q0 20 16.5 33.5t36.5 13.5q10 0 36 -1t47 -1h24q16 1 36 1q89 0 259 -22q37 -4 107.5 -15t101.5 -15q29 -63 40 -107q2 -6 3 -8h2q4 0 12 -1t20 -3q212 -55 362 -55q96 0 167 22q-63 -115 -154 -211q-209 -217 -457 -246v49q-15 2 -33 3q-78 0 -204 -44 q-156 -53 -250 -100l-16 -10l-4 -8v-598l-80 -60zM492 297v682l8 387q2 57 5 57q1 0 1 -2q23 -66 39 -166q12 -76 12 -179q0 -32 -1 -66q-5 -145 -50 -254q-6 -12 -10 -234z" />
<glyph unicode="Z" d="M383 102v1323q0 18 39 33t65 15q12 0 24.5 -1.5t20.5 -1.5h11q17 1 39 2q95 0 284 -22q43 -4 234 -33q27 -57 41 -104q2 -4 2 -8v-2q12 4 35 -3q45 -10 87 -12h12q37 0 84 10q54 12 84 20.5t109 35.5l-4 -582q-111 -33 -194 -47q-62 -10 -111 -10q-109 0 -147 51l-2 94 q-15 2 -34 2q-83 0 -232 -45q-181 -55 -273 -98q-14 -10 -16 -12l-6 -7v-598l-78 -61zM535 735v680q0 8 4 10q1 0 1 1q4 0 9 -11q2 -4 2 -6q23 -63 39 -165q12 -77 12 -180q0 -32 -1 -67q-5 -145 -50 -254q-2 -8 -10 -8h-6z" />
<glyph unicode="[" d="M344 625q-29 31 8 43q37 6 51 6h271v688q2 31 14 53q29 53 98 53h289q27 0 55 -14q55 -31 56 -98l-2 -682h282q70 8 70 -19q-2 -10 -16 -28l-557 -561q-25 -25 -43 -15q-8 2 -21 15z" />
<glyph unicode="\" d="M217 758q0 291 207 497.5t497.5 206.5t497.5 -206.5t207 -497.5t-206 -497t-498.5 -206t-498.5 206t-206 497zM356 757.5q0 -233.5 166 -399t399.5 -165.5t401.5 165.5t168 399t-168 401.5t-401.5 168t-399.5 -168t-166 -401.5zM453 758q0 195 138 334t331 139 q195 0 332 -139.5t137 -334t-137.5 -331.5t-331.5 -137q-193 0 -331 138t-138 331zM680 909q4 -10 16 -10h176v-186l-90 -213q-10 -10 4 -17l13 -6q6 0 12 2q12 8 12 21l72 118l6 11q16 10 18.5 10t5.5 -1t5 -1l6 -6q4 -4 6 -8l72 -125q4 -10 6 -11q10 -10 24 -10q6 0 13 6 q12 8 8 23l-96 207v188h170q10 0 16 8q2 4 2 13q0 14 -8 20l-8 4h-449l-6 -2q-6 -6 -6 -22v-13zM868 1040.5q0 -20.5 14.5 -36t37.5 -15.5q20 0 34.5 15.5t14.5 36t-14.5 36t-34.5 15.5q-23 0 -37.5 -15.5t-14.5 -36z" />
<glyph unicode="]" d="M305 860q0 14 17 29l557 561q20 25 43 14q8 -2 20 -14l555 -559q35 -35 -8 -43q-12 -6 -51 -6h-271v-688q0 -27 -14 -56q-31 -51 -98 -51h-289q-31 0 -55 14q-55 29 -56 99v682h-280q-74 -9 -70 18z" />
<glyph unicode="^" d="M274 422q-12 -25 15 -43l28 -14l928 -240q10 -4 31 -4q27 4 35 31l14 47q14 20 -20 98q-16 35 -41 76q-18 29 -27.5 66.5t-8.5 85.5t4 86t17.5 100.5t21.5 93.5t26.5 99.5t23.5 84.5q10 59 -10 107q-47 119 -228 170l-55 14q-186 49 -283 -31q-43 -37 -61 -90 q-6 -20 -23.5 -86.5t-26.5 -98.5t-27.5 -91.5t-35 -94t-39 -76.5t-49 -70t-57.5 -44q-35 -16 -72 -47q-76 -49 -69 -82zM330 156l76 84q18 23 43 32q12 4 18 4q49 -14 35 -61l-74 -86q-23 -25 -47 -33q-4 -4 -16 -4q-49 15 -35 64zM1038.5 1390.5q8.5 30.5 36 46t58.5 7.5 q29 -8 45 -35t8 -57.5t-36 -47t-58 -8.5q-29 8 -45.5 36t-8 58.5z" />
<glyph unicode="_" d="M446 356q-4 -23 27 -37q12 -4 27 -4h903q12 0 29 4q31 14 26 37v45q8 31 -45 93q-25 31 -53 59q-27 25 -46.5 65.5t-29.5 88t-15 101.5t-6 108.5t-1 107.5v98q0 49 -35 99q-72 96 -248 96h-53q-176 0 -248 -96q-35 -49 -35 -99v-98q0 -53 -1 -107.5t-6 -108.5 t-15.5 -101.5t-30 -88t-45.5 -65.5q-29 -29 -53 -59q-55 -63 -46 -93v-45zM879 1432q0 31 21.5 51t49.5 20q33 0 53.5 -20.5t20.5 -51t-20.5 -51t-53.5 -20.5q-29 0 -50 21.5t-21 50.5zM881 125v94q0 20 14 34.5t33 14.5q23 0 36 -13t13 -36v-94q0 -20 -14.5 -33.5 t-34.5 -13.5q-18 0 -32.5 13.5t-14.5 33.5z" />
<glyph unicode="`" d="M367 954q0 215 162.5 370t381.5 155t385 -155t166 -370q0 -168 -278 -559q-111 -158 -279 -352q-150 176 -270 354q-268 393 -268 557zM750 1151q0 -70 48 -118t115 -48q70 0 117 48t47 118q0 68 -47 116t-117 48q-68 0 -115.5 -48t-47.5 -116z" />
<glyph unicode="a" d="M242 100q0 10 -1 20q0 88 17 150q10 31 21 41q2 2 23.5 25.5t35.5 33t46 28t77 30.5t104 21q176 31 187 137v26l-7 72q-49 29 -86 86q-18 29 -26 51q-31 14 -44.5 27.5t-15.5 21t-4 31.5q-6 41 -6 70q0 37 10 53q4 12 21 16q16 0 18 15q4 6 0 16q-3 31 -3 78v25 q1 63 5 90q4 43 30 90t75 57q45 8 57 10q4 0 15 2q6 2 21 9.5t42 7.5l98 16q27 0 59.5 -33.5t43 -36t33 2t51.5 0.5q27 -4 42 -27t18 -40t5 -52l2 -35q6 -53 6 -95.5t-6 -74.5q-4 -12 -2 -16q4 -14 17 -13q16 -4 24 -18q15 -23 16 -71q0 -22 -4 -50q-2 -14 -9 -23.5 t-12 -13.5t-26 -16l-30 -19q-10 -29 -25 -53q-33 -59 -74 -94q-4 -20 -5 -44t-1 -26q-2 -8 -2 -16v-2q-2 -11 -2 -22q0 -71 109 -105q29 -8 65 -14q51 -8 93 -19.5t67 -21t49.5 -25.5t34.5 -24.5t26.5 -26t20.5 -21.5q12 -12 23 -41q23 -66 26 -170h-1343z" />
<glyph unicode="b" d="M82 115q0 115 16 164q6 20 19 38q8 6 27.5 30t38 38t66.5 32.5t118 28.5q164 25 170 123q0 6 2 6q-2 2 -2 13v14l-2 68q-51 23 -99 82q-4 6 -9 14t-10 18l-7 15q-16 6 -26.5 12t-17 10t-9.5 12.5t-4 11.5t-2 14t-1 15q-7 42 -6 70q0 32 8 45q4 12 21 17q16 0 16 14 q2 6 0 14q-2 27 -2 56q0 59 8 131q4 41 29 85t72 54q43 8 52 9t13 1q8 2 22.5 9t39.5 7l94 15q27 0 56.5 -32t37.5 -34q10 -2 31.5 2t48.5 0q25 -4 39 -25.5t18 -39t5 -48t1 -32.5q6 -52 6.5 -93t-6.5 -71q-2 -8 0 -14q0 -14 15 -13q14 -2 22 -16q15 -23 15 -72 q0 -19 -2 -43q-2 -12 -8.5 -21t-12.5 -13.5t-23.5 -14.5t-29.5 -18q0 -2 -23 -51q-35 -55 -84 -88q-2 -18 -4 -40t-2 -26v-16l-2 -4q-2 -6 -3 -12.5t-2 -14.5t2 -17.5t8 -19.5t16.5 -20.5t27 -19.5t41 -16t56.5 -12q57 -8 99 -20t71.5 -28.5t43 -27t33 -31t21.5 -22.5 q12 -18 18 -38q23 -66 27 -164h-1192zM1026 688q0 -4 1 -11t2 -10t4 -9.5t7 -9.5t12.5 -8t20.5 -9q6 -18 21 -37q33 -43 73 -64q0 -10 1 -29.5t3 -25.5v-20q82 -47 132 -117q2 -8 9 -32.5t11 -39.5q18 -82 18 -151h404q-6 88 -21 116q-4 12 -16 29l-17 18q-13 13 -24.5 22 t-33 21.5t-54.5 21.5t-76 15q-25 4 -44 9.5t-31.5 12.5t-22.5 14t-14.5 15.5t-7.5 15.5t-4 14t-1 11.5t2 8.5v4v12q0 12 6 51q45 31 66 68q12 18 18 39q6 4 15.5 8t12.5 7t9 6t8.5 5.5t5.5 6.5t4 8t3 10v13q0 55 -17 75q-12 12 -20 12q-10 0 -10 11q-2 6 0 12q2 18 2 60 t-2 63q0 4 -2 27.5t-4 37t-13.5 28.5t-29.5 19q-16 6 -33 2t-19 -4q-6 2 -29.5 27t-43.5 25l-70 -13q-20 0 -30.5 -5t-16.5 -7q-4 -2 -11.5 -2t-39.5 -6q-53 -10 -68 -107q0 -2 -3 -60q-2 -35 -2 -57q0 -15 1 -24v-12q-6 -10 -23 -11q-8 0 -14 -12q-8 -13 -8 -41 q0 -20 4 -47z" />
<glyph unicode="c" d="M27 238q-1 9 -1 17q0 63 40 110q16 23 43 38q2 2 11 12.5t14 14.5t18.5 13.5t27 14.5t36 11t50.5 10q47 6 70.5 26.5t24.5 31t-1 22.5v10l-2 13q-2 12 -2 26q-33 20 -51 51l-7 15q-5 10 -9 14l-13 8l-9 6q-3 2 -7 5.5t-6 6.5t-4 7l-4 8q12 47 33 68q8 6 16 10q8 -2 8 6v8 q-4 14 -4 47t4 50q0 80 39 86h14l4 -3l21 15q20 14 37 14l51 -8q16 0 24.5 -5t14.5 -5q10 0 37 -4q10 -2 17 -7.5t10 -11.5t5.5 -15t2.5 -15v-13v-10q2 0 0 -48t-2 -54q-2 -2 2 -11q6 -8 36 -16q6 0 13 -8q7 -11 6 -31q0 -16 -4 -37q-2 -27 -15 -33q-8 -6 -20 -10 q-6 -16 -16 -29q-20 -33 -58 -49q10 -20 15 -41v-16q-63 -39 -101 -92q-8 -25 -14 -62q-14 -63 -14 -161h-381zM461 238v28q0 97 12 144q6 29 14 36q2 4 17.5 23.5t28 30t47 25t88.5 22.5q41 6 69.5 18.5t41 25.5t17.5 26.5t5 21.5v6v21q0 10 -4 51q-59 20 -92 61 q-16 20 -23 39q-8 4 -15.5 7t-11.5 6.5t-7 7.5t-5 6t-4 7t-2 7t-1 8t-1 8q-6 26 -6 48q0 25 8 43q6 10 16 10q23 0 29 12v10q0 88 8 142q14 94 78 108q33 6 51 6q4 0 15.5 7.5t31.5 7.5l70 10q18 0 43 -24.5t31 -24.5q8 -2 23.5 1t37.5 -1q18 -4 29.5 -19.5t13.5 -29t4 -36 t2 -26.5q4 -18 3 -62t-5 -63v-10q4 -12 12 -10q10 -2 17 -15q13 -16 13 -50q0 -16 -3 -36q0 -6 -2 -10t-5 -8t-5 -6t-8 -6l-10 -6q-3 -2 -12 -7.5t-15 -9.5q-8 -23 -19 -39q-25 -41 -61 -67q-6 -29 -6 -51q-4 -6 0 -11l-2 -6q-2 -6 -3 -13t0 -17.5t8 -19.5t19.5 -18.5 t35 -17.5t52.5 -12q53 -8 90 -22.5t50.5 -26t29 -29.5t19.5 -23q8 -8 14 -36q14 -47 16 -172h-882zM1176 731q2 -27 14 -33q8 -6 20 -10q6 -16 17 -29q20 -33 57 -49q-10 -20 -14 -41v-16q63 -39 100 -92q8 -25 14 -62q14 -63 15 -161h104q162 0 277 4q-8 72 -45 127 q-16 23 -37 34q-2 2 -11.5 12.5t-14.5 14.5t-18.5 13.5t-26.5 14.5t-35.5 11t-51.5 10q-47 6 -70.5 26.5t-24.5 31t1 22.5v10v6q0 4 1 8.5t2 11.5t1 13q33 20 51 51l7 15q5 10 10 14l12 8l9 6q3 2 7 5.5t6 6.5t4 7l5 8q-12 47 -33 68q-8 6 -17 10q-8 -2 -8 6v8v97q0 4 -1 20 t-3 27.5t-11 23.5t-24 15h-14l-4 -3l-21 15q-18 14 -34 14l-54 -8q-16 0 -25 -5t-12 -5q-12 0 -38 -4q-10 -2 -17.5 -7.5t-10.5 -11.5t-5 -15t-2 -15v-13v-10q-1 -4 -1 -13q0 -25 5 -89q0 -2 -4 -11q-6 -8 -37 -16q-6 0 -12 -8q-7 -11 -7 -31q0 -16 5 -37z" />
<glyph unicode="d" d="M244 92v14q0 93 26 183q12 33 29 59q39 39 138.5 94.5t213.5 71.5q49 6 79 31.5t38 56.5t9 60.5t-3 48.5l-2 18q2 0 2 4q0 25 -4 39q-57 74 -84 160q-10 45 -10 72v63v119q0 164 86 229q39 27 88 33l139 -49q43 0 86 -27q86 -57 86 -186v-197q0 -94 -51 -162 q-18 -27 -49 -47q-2 -10 -2 -37v-4q4 -2 1 -21.5t3 -51t16.5 -62.5t44 -57.5t82.5 -32.5q111 -16 202 -69.5t134 -96.5q8 -8 19 -43q23 -80 36 -213h-1353z" />
<glyph unicode="e" d="M59 160q0 102 25 176q14 43 27 55q35 35 125 84t192 66q43 6 69.5 28.5t34 49t8.5 53t-1 45.5l-2 16q2 0 2 4q0 25 -2 35q-66 66 -91 146q-12 33 -12 63q-2 18 -2 57q0 72 2 107q6 147 90 205q37 25 82 30l125 -45q35 0 76 -22q76 -45 92 -168v-178q-6 -80 -55 -146 q-14 -18 -47 -43q-4 -18 -4 -33q0 -4 2 -4v-16q-2 -18 2 -47t15 -56.5t41 -51t73 -29.5q150 -25 305 -150q6 -14 16 -39q12 -49 29 -192h-1217zM1014 842v51v127q18 123 92 170q31 20 70 24l102 -36q35 -4 65 -19q68 -39 89 -139v-191q-16 -82 -60 -120q-18 -23 -41 -35 q-2 -8 -2 -29q0 -4 2 -2q4 0 1 -14.5t2 -38t13.5 -47t32 -43t60.5 -25.5q84 -12 152.5 -52t99.5 -71q10 -14 16 -35q16 -43 39 -157l-416 4q-18 193 -20 205l-8 34q-25 35 -189 138q8 25 7 46t-4 35.5t-1 14.5t2 2q0 18 -2 27q-66 57 -90 122q-10 29 -12 54z" />
<glyph unicode="f" d="M37 201l274 2q6 123 13 172q2 20 6 31q25 37 157 118q-10 37 11 39l-2 2q0 12 4 23q37 33 67 90q4 12 8 41v137q-14 96 -69 129q-20 14 -53 19l-78 -27q-29 -4 -51 -14q-49 -33 -70 -107v-145q14 -57 47 -90q18 -18 33 -27q0 -8 2 -16v-7q0 -2 -2 -2q-2 -2 0 -12 t-2 -28.5t-9.5 -36t-23.5 -33t-47 -19.5t-54.5 -13t-45 -21.5t-33 -22.5t-26.5 -22.5t-15 -14.5q-6 -10 -12 -24q-17 -47 -29 -121zM354 201v13q0 80 23 146q8 27 22 48q131 113 285 135q23 2 41 10t28.5 19.5t18.5 24.5t11 27.5t5.5 28t1 25.5t-1.5 21.5t-1 13.5t1 4v2 q0 23 -2 33q-61 53 -88 131q-12 27 -12 57v51v96q0 121 86 183q31 23 74 28l112 -38q37 -4 70 -21q70 -45 90 -152v-161q-14 -72 -61 -133q-20 -25 -45 -39q-2 -8 -2 -31v-4l2 -4v-14q0 -9 1 -21t5 -26.5t9 -28t14.5 -27.5t21.5 -25.5t30.5 -19.5t41.5 -10q137 -20 272 -135 q2 -4 14 -37q18 -53 27 -170h-1094zM1235 719v137q14 96 70 129q20 14 53 19l78 -27q29 -4 47 -14q53 -33 67 -107v-145q-14 -63 -45 -90q-23 -23 -28 -27q-2 -14 -2 -23q0 -2 2 -2q2 -2 0 -12t2 -28.5t9 -36t23.5 -33t47.5 -19.5q35 -4 66.5 -18t49 -26.5t37 -30 t21.5 -19.5q8 -12 10 -24q16 -45 31 -121l-275 2q-29 178 -31 186l-8 31q-25 37 -135 110q-4 6 -8 15.5t-6 13.5v4l2 2q0 8 -2 23q-37 33 -68 90q-4 12 -8 41z" />
<glyph unicode="g" d="M80 1163v11v26q0 20 6 33q9 26 36 25q5 0 11 -1h457q20 -4 33 -8q31 -14 22 -53q4 -16 8 -25q14 -25 56 -32l794 6q16 -4 27 -8q29 -16 22 -54q-4 -18 -8 -28q-12 -25 -45 -25h-1032q-27 0 -64 -16q-51 -27 -51 -78q0 -10 2 -21l-116 -741q-35 6 -45 33q-6 14 -7 29 l-102 948zM311 236q-3 -12 -2 -22q0 -22 13 -32q8 -6 22 -8h1116q43 0 70 39q16 18 20 37l176 608q6 18 6 34q0 40 -36 66q-39 14 -58 15h-1142q-12 0 -21 -6q-25 -12 -47 -43z" />
<glyph unicode="h" d="M95 830q-9 35 -8 79q0 55 13 125q6 35 31 90q35 92 107 154q53 61 168 86q61 14 104 14q80 0 172 -24q180 -49 236 -178q53 131 237 178q92 25 174 24q29 0 105 -14q119 -29 172 -88q66 -57 104 -152q20 -47 29 -90q14 -70 13 -125q0 -44 -8 -79q-19 -79 -93 -201 q-23 -43 -115 -121q-195 -168 -543 -377q-27 -35 -65 -35q-16 0 -33 6q-31 10 -49 29q-348 209 -543 377q-92 78 -115 121q-74 122 -93 201z" />
<glyph unicode="i" d="M264 750v30q0 82 168 115q-96 96 -96 153q0 16 8 29l16 29q23 38 84 38q48 0 119 -24q-17 70 -17 117q0 66 34 86l26 16q18 10 37 10q62 0 145 -100q12 53 43 110.5t74 57.5h31q84 0 115 -168q96 96 153 96q16 0 29 -8l27 -16q39 -23 39 -85q0 -47 -23 -116q74 22 122 23 q62 0 83 -37l16 -29q7 -13 7 -29q0 -58 -95 -153q164 -35 164 -115v-30q0 -72 -166 -117q20 -16 41.5 -41t44.5 -68q11 -22 11 -40t-11 -33l-16 -27q-17 -31 -84 -32q-46 0 -117 16q26 -70 26 -118q0 -61 -42 -85l-27 -15q-14 -8 -31 -7q-58 0 -151 93q-39 -166 -115 -165 h-31q-43 0 -73.5 55t-43.5 108q-81 -97 -143 -96q-21 0 -39 10l-26 17q-32 19 -33 86q0 47 16 117q-72 -19 -120 -20q-62 0 -81 34l-14 29q-9 17 -9 35q0 28 20 60q34 52 77 87q-172 43 -172 117zM631 764q0 -121 84 -205t205 -84q119 0 202.5 85t83.5 204t-84 203 t-202.5 84t-203.5 -84t-85 -203zM782 289l4 -4v2q-2 0 -4 2zM793 760q0 53 38.5 92t92 39t92.5 -39t39 -92t-39 -92t-92.5 -39t-92 39t-38.5 92zM1272 1112l4 -2l-2 4z" />
<glyph unicode="j" d="M227 758v53q0 45 32 78t79 33h76q18 63 49 120l-51 54q-35 33 -35 77t35 78l37 39q35 33 79.5 33t77.5 -33l51 -53q47 29 121 53v72q0 47 33 79t78 32h55q47 0 79 -32t32 -79v-72q76 -25 121 -53l53 53q33 33 77 33t78 -33l39 -39q35 -35 35 -79t-35 -76l-53 -54 q31 -57 49 -120h76q45 0 78 -33t33 -78v-53q0 -45 -33 -78t-78 -33h-76q-16 -63 -49 -121l53 -55q35 -33 35 -77t-35 -77l-39 -38q-35 -33 -77.5 -33t-77.5 33l-53 53q-53 -31 -121 -51v-76q0 -45 -32 -77t-79 -32h-55q-47 0 -79 32t-32 77v76q-63 18 -121 51l-51 -53 q-33 -33 -78 -33t-79 33l-37 38q-35 33 -35 77t35 77l53 55q-33 59 -51 121h-76q-47 0 -79 33t-32 78zM557 784.5q0 -149.5 104.5 -254t254 -104.5t254 104.5t104.5 254t-104.5 254t-254 104.5t-254 -104.5t-104.5 -254zM614 782q0 127 88.5 215t215 88t215 -88t88.5 -215 q0 -125 -89.5 -214t-214 -89t-214 89t-89.5 214zM776 784q0 -59 40 -99t97.5 -40t97.5 41t40 98.5t-40 98.5t-97.5 41t-97.5 -41.5t-40 -98.5zM889 782q0 29 26 29q29 0 29 -29q0 -27 -29 -26q-26 -1 -26 26z" />
<glyph unicode="k" d="M330 952v25q0 57 133 84q8 37 33 82q-16 16 -40 74q-11 27 -11 46q0 22 14 33l22 21q12 10 27.5 13t30 0t33 -10t28.5 -13.5t23 -14.5l12 -8q43 20 82 35q6 35 29.5 82t58.5 47h24q10 0 20.5 -5t17.5 -11.5t13.5 -17.5t10.5 -20.5t9 -23.5t6 -20l3 -19l4 -12 q39 -10 84 -35q12 10 39 23.5t62 21.5t51 -10l22 -23q16 -18 17 -43q0 -44 -51 -108q25 -45 34 -84v2q33 -6 66 -19q63 -29 63 -67v-25q0 -55 -129 -88q-12 -45 -36 -84l2 2q23 -29 34 -57q16 -29 16 -52q0 -24 -18 -42l-24 -23q-13 -13 -35 -12q-41 0 -113 47 q-37 -20 -92 -37h8q-6 -43 -16 -63q-29 -66 -68 -66h-24q-16 0 -30.5 12.5t-25 32t-16.5 36.5t-12 36l-4 16q-47 14 -90 41l8 -10q-29 -20 -57 -33q-31 -14 -54 -14q-25 0 -41 16l-22 19q-14 14 -14 37q0 43 51 118q-25 45 -35 80q-133 39 -133 88zM641 965q0 -74 50 -125.5 t124 -51.5q72 0 124 52.5t52 124t-52 122t-124 50.5q-74 0 -124 -50t-50 -122zM993 344v10q0 18 22.5 29.5t37.5 11.5q4 14 16 39l-8 17q-10 18 -13.5 32.5t5.5 26.5l10 8q6 10 20.5 7t22.5 -6t20 -11l11 -6q10 8 39 16q12 59 41 60h10q12 0 20 -8.5t11 -17.5l8 -22l4 -12 l39 -16l10 6l16 8q8 4 18.5 8t19.5 4t13 -6l11 -10q5 -5 5 -14q0 -21 -26 -64q12 -25 17 -39v2q4 -2 15 -5t17 -5q33 -14 33 -33v-10q0 -31 -67 -41q-2 -23 -17 -43l2 2q12 -18 19 -31q16 -31 0 -47l-13 -12q-10 -10 -36.5 1t-36.5 22q-23 -10 -43 -17h4q-4 -23 -8 -31 q-12 -31 -35 -30h-10q-16 0 -28.5 26.5t-12.5 36.5q-29 8 -46 21l5 -6q-12 -12 -29 -19q-31 -16 -45 0l-10 8q-12 12 0 42t20 38q-12 14 -18 37q-8 0 -34 13.5t-26 29.5zM1151 346q0 -33 22.5 -55.5t55.5 -22.5t55.5 22.5t22.5 55.5t-22.5 55.5t-55.5 22.5t-55.5 -22.5 t-22.5 -55.5z" />
<glyph unicode="l" d="M143 590q0 -25 16.5 -40t39.5 -15h215q25 0 40 15t15 40v377q0 25 -15.5 40t-39.5 15h-215q-23 0 -39.5 -15.5t-16.5 -39.5v-377zM252 156q0 -23 16.5 -38.5t38.5 -15.5q20 0 36.5 16.5t16.5 37.5v325h-108v-325zM252 1075v326q0 23 16.5 38t38.5 15q20 0 36.5 -16.5 t16.5 -36.5v-326h-108zM739 373q0 -23 15.5 -38.5t38.5 -15.5h217q23 0 38 15.5t15 38.5v379q0 23 -15.5 38t-37.5 15h-217q-23 0 -38.5 -15.5t-15.5 -37.5v-379zM848 156q0 -23 15.5 -38.5t38 -15.5t37.5 15.5t15 38.5v108h-106v-108zM848 860v541q0 23 15.5 38t38 15 t37.5 -15.5t15 -37.5v-541h-106zM1333 805q0 -23 15.5 -38t40.5 -15h215q23 0 39 15t16 38v379q0 23 -16.5 38t-38.5 15h-215q-25 0 -40.5 -15.5t-15.5 -37.5v-379zM1442 156q0 -20 16.5 -37t36.5 -17q23 0 39 15.5t16 38.5v540h-108v-540zM1442 1292v109q0 20 16.5 36.5 t36.5 16.5q23 0 39 -15.5t16 -37.5v-109h-108z" />
<glyph unicode="m" d="M217 261.5q0 60.5 41 100.5l66 64l489 446l-8 13l-373 379q-18 -8 -53 0q-6 2 -16.5 6t-12.5 6l-61 59l117 119l61 -61q16 -12 16 -50l-4 -28l385 -387h8l58 59q59 59 59 64q-27 59 -34 101q-2 10 -1 21q0 35 17 79q23 58 86 120q61 57 140 78q38 10 73 10q39 0 76 -12 l-166 -166q-16 -16 -16.5 -32t16.5 -31l73 -76q14 -12 33 -12.5t31 12.5l176 172q26 -52 26 -111q0 -26 -6 -54q-16 -89 -81 -157q-76 -76 -149 -92q-21 -5 -43 -5q-18 0 -59.5 15t-64.5 15q-8 0 -65 -58l-58 -59l74 -74l31 31q14 16 35.5 16t35.5 -16l426 -434 q17 -19 17.5 -38t-17.5 -36l-131 -123q-19 -17 -37 -17t-34 17l-422 426q-17 17 -17.5 35.5t17.5 38.5l37 41l-68 67q-86 -102 -254 -317q-14 -18 -162 -203l-63 -63q-41 -41 -102 -42h-2q-59 0 -99 42q-41 41 -41 101.5zM336 290.5q0 -20.5 14 -34.5q17 -17 35 -17t37 17 q16 14 16 34.5t-16 37.5q-18 17 -36 17t-36 -17q-14 -17 -14 -37.5zM1040 596l379 -395q6 -8 15.5 -8t13.5 8q14 16 0 30l-377 398q-14 12 -31 0q-5 -8 -5 -16.5t5 -16.5zM1120 676l377 -397q7 -6 15 -6.5t16 6.5q6 8 6 15.5t-6 14.5l-379 398q-7 9 -14 9l-15 -9 q-9 -6 -9 -14t9 -17z" />
<glyph unicode="n" d="M528 90q16 -16 39 -24q5 -1 10 -1l56 21q16 16 22 27l166 333q20 74 47 78q10 0 23 -12l117 -133q20 -33 34 -154q2 -31 7 -100q-12 -37 24 -49q10 -4 41 -8q39 0 62 22q4 10 8 23v178q-14 133 -103 268q-49 78 -88 123v57l29 162q20 27 41 19q12 -8 16 -13 q-4 -29 45 -69q41 -31 47 -33l115 -43q37 -14 62 -2l14 14q7 18 7 32q0 11 -5 19q-6 10 -14 13l-103 57q-84 49 -106 119q-12 33 -11 65q-12 76 -67 123q-25 18 -55 33q-29 23 -78 22q-4 0 -11.5 -1t-13.5 -2t-12 -3l-272 -131q-14 -8 -33 -35q-4 -12 -4 -18v-287 q-14 -37 6 -45q4 -6 18 -6q43 14 54 25q4 4 8 12l8 221q4 8 24 27l21 14l45 39q31 20 39 8q4 -8 2 -18q-51 -78 -78 -160q-10 -35 -10 -59v-207l-189 -449q-20 -30 -19 -54q0 -22 15 -38zM952 1376q0 47 35 82t84 35q51 0 85 -34t34 -83q0 -51 -34 -85t-85 -34q-49 0 -84 34 t-35 85z" />
<glyph unicode="o" d="M317 328q8 -39 54 -56q29 -8 47 -8h385q10 0 20 17q19 29 19 92v24q12 125 37 150q8 10 20 0q96 -184 174 -324l47 -88q2 -37 45 -49q10 -4 43 -8q37 12 52 41q6 10 8 22l-250 543v55l74 176q20 27 41 19q8 -4 16 -12q27 -31 102 -78q20 -14 66 -39l115 -6q31 -2 53 24 q4 6 8 25q3 8 3 15q0 19 -21 28q-12 6 -31 8l-76 6q-102 66 -149 117q-25 23 -45 49q-31 68 -130 88q-29 4 -92 4h-307q-20 -10 -31 -33q-4 -12 -4 -16q-2 -4 -13 -16.5t-19 -22.5q-12 -16 -134 -190q-3 -14 -2 -25q0 -26 13 -39q4 -6 20 -10q45 12 66 25q8 8 8 12l121 145 q-6 10 12 25q10 10 18 14l103 -6q29 20 37 8q2 -4 2 -18q-76 -106 -103 -189q-16 -49 -22 -79l-4 -117l-6 -187q2 -27 -13 -36q-2 -2 -18 -9h-80q-18 0 -86 -1t-113 -1q-12 3 -22 3q-32 0 -47 -29q-7 -12 -11 -43zM1006 1321q0 47 33.5 82t80.5 35q49 0 83 -35t34 -82 t-34 -81t-83 -34q-47 0 -80.5 34t-33.5 81z" />
<glyph unicode="p" d="M653 713q0 -12 21 -29q6 -4 18 -8q23 -6 35 16q6 8 6 25v205q4 23 10.5 35t10.5 12t8 -2q10 -10 16 -23l2 -825q0 -25 19 -33q8 -6 20 -6h47q25 0 33 18q6 8 6 21v381q-4 23 6 32l13 7q14 -6 20 -19q4 -8 4 -14v-391q0 -25 21 -31q12 -4 20 -4h47q8 -2 14 -2q17 0 23 16 q6 6 6 21v829q4 23 10.5 28t14.5 1l18 -19l-2 -239q-6 -27 19 -39q6 -4 26 -4q12 -2 23 4q23 10 18 37l-4 387q-12 29 -49 37q-14 6 -35 6h-391q-35 4 -57 -19q-10 -10 -17 -24v-387zM823 1310.5q0 53.5 36 90.5t89 37q51 0 89 -37t38 -90.5t-37 -91t-90 -37.5t-89 37.5 t-36 91z" />
<glyph unicode="q" d="M614 762q-8 -22 -8 -38q0 -19 12 -30q8 -8 25 -14q16 -4 39 22q14 10 16 25l78 219q20 33 35 19q4 -6 8 -21l-131 -348q-25 -33 -16 -45q4 -4 12 -4h96v-428q-4 -18 19 -33q8 -6 20 -6h47q23 0 33 18q4 12 6 21v387q0 23 8 35q6 6 13 6q16 -10 22 -27q2 -4 2 -14v-391 q0 -20 25 -31q12 -4 22 -4h39q7 -2 13 -2q16 0 24 16q6 6 6 21v432h84q23 0 19 18l-6 19l-101 366q8 20 19 21q8 -2 10 -8l92 -236q14 -35 35 -47q10 -6 18 -6q39 7 40 49q0 10 -5 29l-145 348q-10 25 -41 37q-12 6 -27 6h-258q-5 1 -10 0q-28 0 -49 -19q-14 -18 -17 -24z M823 1310.5q0 53.5 36 90.5t89 37q51 0 89 -37t38 -90.5t-37 -91t-90 -37.5t-89 37.5t-36 91z" />
<glyph unicode="r" d="M541 119q31 -27 73 -27h607q90 0 89 56q0 22 -14 53q-20 39 -73 108l-219 307v263h40q31 -12 41 16q6 12 7 27v49q0 20 -27 35q-8 6 -23 6l-254 -2q-35 -14 -40 -27q-6 -6 -7 -16v-45q0 -27 23 -35q10 -6 22 -6h43v-267l-221 -307q-83 -93 -83 -148q1 -23 16 -40z M694 1253q0 27 20.5 47.5t49.5 20.5q27 0 47 -19.5t20 -48t-19 -48t-48 -19.5t-49.5 19t-20.5 48zM868 1120.5q0 24.5 27 24.5q25 0 25 -24.5t-25 -24.5q-27 0 -27 24.5zM913 1341q0 45 33 77t78 32t77 -32t32 -77t-32 -77.5t-77 -32.5t-78 31.5t-33 78.5z" />
<glyph unicode="s" d="M176 381l275 287v-154h825q10 0 22 6q23 14 23 43l-2 215l219 170v-549q0 -43 -20 -80q-43 -78 -148 -77h-932l4 -164zM180 518v594q0 39 19 80q43 84 143 84h926v162l323 -285l-323 -305v153h-830q-12 0 -24 -6q-27 -14 -23 -43v-217z" />
<glyph unicode="t" d="M172 639q-26 115 -26 214q0 155 63 271q47 88 115 136q124 125 323 125q81 0 174 -21q143 -35 281 -111l53 170l340 -512l-530 -75q31 61 49 116q4 10 9 26.5t5 18.5q-264 182 -451 182q-172 0 -280 -153q-96 -131 -125 -387zM283 645l528 76q-25 -49 -47 -117 q-4 -10 -9 -26.5t-5 -18.5q264 -182 451 -181q172 0 280 152q96 137 125 388q23 -112 23 -209q0 -158 -62 -277q-49 -90 -113 -135q-130 -126 -326 -126q-81 0 -174 22q-143 31 -280 110l-51 -170z" />
<glyph unicode="u" d="M279 582q-3 9 -3 16q0 19 19 25q8 2 27 2l456 -2q41 0 41 -23q0 -7 -4 -16q-8 -20 -27 -37l-167 -141l10 -11q10 -10 32.5 -25.5t54.5 -31.5t88 -27.5t124 -11.5q201 0 335 132t134 331q0 20 12 39q27 37 90 37q27 0 51 -11q51 -20 52 -65q-4 -276 -201 -473 q-195 -195 -468 -195h-5q-78 0 -154 19q-186 45 -295 153l-121 -153q-35 -34 -54 -34q-8 0 -13 5q-10 10 -10 31zM281 754q0 276 200 473q199 195 472 194h5q78 0 154 -18q182 -45 295 -154l121 154q35 34 55 34q8 0 12 -5q10 -10 11 -31l4 -467q2 -8 2 -15q0 -20 -19 -26 q-8 -2 -26 -2l-457 2q-31 0 -40 11t1 26q12 25 29 39l170 141q-2 -2 -12.5 7t-33 25.5t-55 33t-89 27.5t-122.5 11q-201 0 -335 -131t-134 -329q-4 -23 -14 -39q-25 -37 -82 -37h-6q-25 0 -53 8q-53 19 -53 68z" />
<glyph unicode="v" d="M131 1153l4 -113q0 -25 10 -36q20 -39 80 -43h252q6 0 27 -5q27 -4 49 -22l90 -76l100 170l-100 123q-10 8 -29 27q-12 12 -61 51h-354q-16 -2 -35 -10q-35 -21 -33 -66zM133 352v103q0 20 10 41q23 39 80 39h240q2 0 26 8q33 20 68 67l373 510q20 29 31 39q39 47 100 68 l252 2v186q0 12 6 17q4 5 9 5q10 0 26 -16l311 -299q8 -4 16 -16q6 -14 -26 -47l-281 -268q-20 -12 -26 -15q-27 -6 -41 25v164h-160q-10 -2 -31 -11q-37 -20 -55 -67q-227 -342 -307 -449q-41 -57 -66 -86v-2l-31 -26q-14 -14 -69 -52h-369q-25 2 -43 13q-43 20 -43 67z M864 463l103 -101q2 -6 24 -32q35 -35 82 -58h240v-166q0 -16 6 -22q3 -2 8 -2q18 0 51 43l285 248q10 10 12 20q4 7 4 14q0 15 -20 29l-277 248q-18 12 -41 21q-9 3 -14 2q-22 0 -14 -33v-139h-166q-16 0 -33 6q-39 18 -57 49l-39 80z" />
<glyph unicode="w" d="M354 526q8 166 92 320q182 322 623 321v306q84 -72 150 -136q182 -174 393 -403q-285 -236 -463 -367q-61 -43 -84 -51l4 301q-106 18 -196 19q-30 0 -58 -2q-264 -16 -338 -216q-33 -61 -49 -145q-10 -53 -10 -109q0 -147 65 -321q-43 53 -71 121q-59 142 -59 311 q0 25 1 51z" />
<glyph unicode="x" d="M231 954q174 193 394 404q66 63 149 135v-305q440 0 623 -322q84 -154 92 -319q1 -26 1 -52q0 -169 -58 -311q-29 -68 -72 -121q67 177 67 324q0 55 -10 107q-16 86 -51 145q-74 199 -338 215q-28 2 -58 2q-90 0 -196 -18l4 -301q-23 8 -84 51q-119 85 -463 366z" />
<glyph unicode="y" d="M365 182q0 -66 51 -90q25 -14 49 -14h913q63 0 86 47q14 25 15 49v680q-10 59 -56 84q-18 12 -43 12q2 -29 -20 -41q-12 -6 -27 -6h-96q-31 0 -45 23q-6 12 -6 24h-533q0 -27 -22 -41q-12 -6 -25 -6h-96q-12 0 -25 6q-25 12 -26 41q-55 0 -82 -47q-12 -33 -12 -49v-672z M506 950q0 201 115.5 344.5t302 143.5t298 -141.5t111.5 -342.5q-2 -2 -12 -2h-84q0 164 -83 275.5t-230.5 111.5t-232.5 -113.5t-85 -275.5h-100zM754 575q0 33 18 66q35 61 125 68q29 0 66 -15q68 -31 77 -114q-4 -23 -12 -37q-20 -41 -84 -72v-197l-96 -2v195 q-23 0 -37 14q-41 22 -57 94z" />
<glyph unicode="z" d="M207 211q0 -70 53 -98q29 -14 55 -15h725q63 0 93 54q12 20 12 51v626q-10 61 -60 93q-20 12 -45 12q4 -31 -24 -45q-16 -4 -27 -6h-102q-37 0 -49 24q-4 6 -9 27h-311q0 -27 -26 -45l-25 -6h-105q-2 0 -6 1t-7 1t-6 1t-5 3q-27 12 -29 45q-66 0 -90 -53q-12 -25 -12 -52 v-618zM520 598q4 37 19 64q41 66 137 65q35 0 74 -16q74 -33 79 -119q0 -20 -12 -53q-33 -59 -90 -70v-211l-102 -2l-2 209q-20 2 -45 16q-50 37 -58 117zM881 934q0 223 101 373.5t296 150.5q197 0 293 -147.5t96 -372.5q-2 -2 -14 -2h-90q0 418 -285 418 q-154 0 -221.5 -118t-67.5 -302h-108z" />
<glyph unicode="{" d="M61 526v422q0 45 31 76t76 31h465q45 0 75.5 -31t30.5 -76v-422q0 -45 -30.5 -75.5t-75.5 -30.5h-465q-45 0 -76 30.5t-31 75.5zM854 526q0 20 15.5 36t37.5 16h793q23 0 38 -14.5t15 -37t-15.5 -38t-37.5 -15.5h-793q-23 0 -38 15t-15 38zM854 737.5q0 20.5 15.5 37 t37.5 16.5h793q23 0 38 -15.5t15 -38t-15.5 -38t-37.5 -15.5h-793q-23 0 -38 16.5t-15 37zM854 948q0 23 15.5 38t37.5 15h793q23 0 38 -15t15 -37.5t-15.5 -37t-37.5 -14.5h-793q-23 0 -38 15.5t-15 35.5z" />
<glyph unicode="|" d="M100 301v238q0 49 35 83.5t84 34.5h238q49 0 82.5 -34.5t33.5 -83.5v-238q0 -49 -33.5 -84t-82.5 -35h-238q-49 0 -84 35t-35 84zM100 895v238q0 49 35 83.5t84 34.5h238q49 0 82.5 -34.5t33.5 -83.5v-238q0 -49 -33.5 -84t-82.5 -35h-238q-49 0 -84 35t-35 84zM694 301 q0 25 17.5 43t42.5 18h888q25 0 42.5 -18t17.5 -43t-17.5 -41t-42.5 -16h-888q-27 0 -43.5 16t-16.5 41zM694 598q0 25 16.5 42t43.5 17h888q25 0 42.5 -17t17.5 -42t-17.5 -42t-42.5 -17h-888q-27 0 -43.5 17t-16.5 42zM694 895q0 25 16.5 42t43.5 17h888q25 0 42.5 -17 t17.5 -42t-17.5 -42t-42.5 -17h-888q-27 0 -43.5 17t-16.5 42zM694 1190q0 27 16.5 44t43.5 17h888q25 0 42.5 -17t17.5 -44q0 -23 -17.5 -40t-42.5 -17h-888q-25 0 -42.5 17t-17.5 40z" />
<glyph unicode="}" d="M145 334q0 23 16.5 39t41.5 16h1415q25 0 40 -16.5t15 -38.5q0 -25 -15.5 -41.5t-39.5 -16.5h-1415q-25 0 -41.5 16.5t-16.5 41.5zM145 616q0 23 16.5 40.5t41.5 17.5h1415q25 0 40 -16.5t15 -41t-15.5 -41t-39.5 -16.5h-1415q-25 0 -41.5 16t-16.5 41zM145 899 q0 25 16.5 41t41.5 16h1415q25 0 40 -16t15 -41t-15.5 -41t-39.5 -16h-1415q-25 0 -41.5 17t-16.5 40zM145 1182q0 25 16.5 41t41.5 16h1415q25 0 40 -16.5t15 -40.5q0 -23 -15.5 -39.5t-39.5 -16.5h-1415q-25 0 -41.5 16.5t-16.5 39.5z" />
<glyph unicode="~" d="M131 369v778q0 25 16.5 41t38.5 16q25 0 41.5 -16.5t16.5 -40.5v-778q0 -25 -16.5 -41.5t-41.5 -16.5q-23 0 -39 16.5t-16 41.5zM354 479v557q0 23 16.5 39.5t39 16.5t39 -16.5t16.5 -39.5v-557q0 -23 -16.5 -39t-39 -16t-39 16t-16.5 39zM578 535v446q0 47 32.5 79 t77.5 32h447q45 0 77.5 -32t32.5 -79v-446q0 -47 -32.5 -79t-77.5 -32h-447q-45 0 -77.5 32t-32.5 79zM1358 479v557q0 23 16.5 39.5t39 16.5t38.5 -16.5t16 -39.5v-557q0 -23 -16 -39t-38.5 -16t-39 16t-16.5 39zM1579 369v778q0 25 16.5 41t40.5 16q23 0 39.5 -16.5 t16.5 -40.5v-778q0 -25 -16.5 -41.5t-39.5 -16.5q-25 0 -41 16.5t-16 41.5z" />
<glyph unicode="&#xaa;" d="M242 100q0 10 -1 20q0 88 17 150q10 31 21 41q2 2 23.5 25.5t35.5 33t46 28t77 30.5t104 21q176 31 187 137v26l-7 72q-49 29 -86 86q-18 29 -26 51q-31 14 -44.5 27.5t-15.5 21t-4 31.5q-6 41 -6 70q0 37 10 53q4 12 21 16q16 0 18 15q4 6 0 16q-3 31 -3 78v25 q1 63 5 90q4 43 30 90t75 57q45 8 57 10q4 0 15 2q6 2 21 9.5t42 7.5l98 16q27 0 59.5 -33.5t43 -36t33 2t51.5 0.5q27 -4 42 -27t18 -40t5 -52l2 -35q6 -53 6 -95.5t-6 -74.5q-4 -12 -2 -16q4 -14 17 -13q16 -4 24 -18q15 -23 16 -71q0 -22 -4 -50q-2 -14 -9 -23.5 t-12 -13.5t-26 -16l-30 -19q-10 -29 -25 -53q-33 -59 -74 -94q-4 -20 -5 -44t-1 -26q-2 -8 -2 -16v-2q-2 -11 -2 -22q0 -71 109 -105q29 -8 65 -14q51 -8 93 -19.5t67 -21t49.5 -25.5t34.5 -24.5t26.5 -26t20.5 -21.5q12 -12 23 -41q23 -66 26 -170h-1343z" />
<glyph unicode="&#xad;" d="M147 698v176q0 31 13 58q33 61 106 61h1297q29 0 61 -14q61 -33 62 -105v-190q0 -33 -15 -61q-31 -59 -110 -60h-1299q-31 0 -57 17q-58 38 -58 118z" />
<glyph unicode="&#xb2;" d="M84 258v1036q0 20 40 61.5t62 41.5h1448q20 0 61.5 -41t41.5 -62v-1036q0 -20 -41 -61t-62 -41h-1448q-23 0 -62.5 41t-39.5 61zM238 311h1345v930h-1345v-930zM291 362l207 308l106 -99l314 357l98 -107l207 266l305 -471v-254h-1237zM393 983.5q0 63.5 45 107.5t107 44 q66 0 108.5 -44t42.5 -108q0 -66 -43 -110t-108 -44q-61 0 -106.5 45.5t-45.5 109z" />
<glyph unicode="&#xb3;" d="M102 418v870q0 23 43 66t66 43h1255q23 0 66 -43t43 -66v-870q0 -39 -41 -76t-68 -37l-1255 2q-23 0 -66 44t-43 67zM211 414h1257v874h-1257v-874zM266 250h1278q70 0 86 74q6 31 2 75v834q23 0 66 -44t43 -67v-868q0 -23 -43 -68t-66 -45h-1257q-23 0 -66 43t-43 66z M266 473l164 209l113 -104l274 323l107 -115l215 283l270 -387v-209h-1143zM371 1099.5q0 57.5 40 97.5t97 40q59 0 99 -40t40 -97.5t-40 -97t-99 -39.5q-57 0 -97 39.5t-40 97z" />
<glyph unicode="&#xb9;" d="M225 952q0 16 15 31l678 469q23 27 47 14q8 -2 22 -16l684 -469q33 -37 -6 -53q-14 -4 -49 -8l-43 2q-35 -4 -53 -15q-55 -27 -56 -94q2 -254 2 -491q0 -88 -2 -111q0 -25 -14 -49q-33 -51 -92 -51q-16 0 -29 6q-25 12 -24 47l-2 379q0 16 -9 26q-12 27 -49 27h-211 q-18 0 -26 -6q-29 -16 -29 -47l2 -373q0 -18 -6 -29q-10 -31 -49 -30h-379q-25 0 -53 14q-55 31 -56 100q-2 352 0 480q0 88 2 112q-4 33 -14 51q-25 51 -90 52h-43q-68 -1 -68 32zM385 1196q0 -18 7 -23.5t16 1.5q12 8 22 18l172 111v53q0 68 -57 92q-20 12 -56 12 q-66 2 -90 -51q-14 -29 -14 -57v-156zM1032 354q0 27 27 27h55q29 0 29 -27q0 -29 -29 -28h-55q-27 -1 -27 28z" />
<glyph unicode="&#xba;" d="M317 328q8 -39 54 -56q29 -8 47 -8h385q10 0 20 17q19 29 19 92v24q12 125 37 150q8 10 20 0q96 -184 174 -324l47 -88q2 -37 45 -49q10 -4 43 -8q37 12 52 41q6 10 8 22l-250 543v55l74 176q20 27 41 19q8 -4 16 -12q27 -31 102 -78q20 -14 66 -39l115 -6q31 -2 53 24 q4 6 8 25q3 8 3 15q0 19 -21 28q-12 6 -31 8l-76 6q-102 66 -149 117q-25 23 -45 49q-31 68 -130 88q-29 4 -92 4h-307q-20 -10 -31 -33q-4 -12 -4 -16q-2 -4 -13 -16.5t-19 -22.5q-12 -16 -134 -190q-3 -14 -2 -25q0 -26 13 -39q4 -6 20 -10q45 12 66 25q8 8 8 12l121 145 q-6 10 12 25q10 10 18 14l103 -6q29 20 37 8q2 -4 2 -18q-76 -106 -103 -189q-16 -49 -22 -79l-4 -117l-6 -187q2 -27 -13 -36q-2 -2 -18 -9h-80q-18 0 -86 -1t-113 -1q-12 3 -22 3q-32 0 -47 -29q-7 -12 -11 -43zM1006 1321q0 47 33.5 82t80.5 35q49 0 83 -35t34 -82 t-34 -81t-83 -34q-47 0 -80.5 34t-33.5 81z" />
<glyph unicode="&#xc0;" d="M363 2517q0 215 162.5 370t381.5 155t385 -155t166 -370q0 -168 -278 -559q-111 -158 -279 -352q-150 176 -270 354q-268 393 -268 557zM746 2714q0 -70 48 -118t115 -48q70 0 117 48t47 118q0 68 -47 116t-117 48q-68 0 -115.5 -48t-47.5 -116zM70 354l2 820 q-3 13 -4 22q0 14 8 17q12 7 30 -7q2 0 50 -39l344 -282q49 -31 49 -64q0 -16 -10 -24l-336 -373q-76 -110 -109 -111q-4 0 -8 2q-16 6 -16 39zM117 1323q0 35 80 35h1409q16 0 57 -10q27 -9 27 -24q0 -13 -21 -30l-735 -600q-6 -8 -19 -16q-27 -8 -43 16l-737 598 q-18 19 -18 31zM156 199q-10 10 -10 23q0 34 57 95l399 441q16 16 31 16q41 0 104 -84l133 -133q10 -10 21 -12q25 -8 45 12l135 133q27 35 55 55q33 24 54 25q16 0 24 -14l400 -441q37 -43 51 -67q9 -19 9 -32q0 -33 -58 -34h-1401q-33 1 -49 17zM1257 821q0 33 48 64 l346 282q47 39 49 39q13 10 22 10q4 0 8 -2q7 -4 7 -19q0 -9 -2 -21l2 -820q0 -33 -17 -39q-4 -2 -8 -2q-33 0 -108 111l-338 373q-9 8 -9 24z" />
<glyph unicode="&#xc2;" d="M374 1935q-12 -25 15 -43l28 -14l928 -240q10 -4 31 -4q27 4 35 31l14 47q14 20 -20 98q-16 35 -41 76q-18 29 -27.5 66.5t-8.5 85.5t4 86t17.5 100.5t21.5 93.5t26.5 99.5t23.5 84.5q10 59 -10 107q-47 119 -228 170l-55 14q-186 49 -283 -31q-43 -37 -61 -90 q-6 -20 -23.5 -86.5t-26.5 -98.5t-27.5 -91.5t-35 -94t-39 -76.5t-49 -70t-57.5 -44q-35 -16 -72 -47q-76 -49 -69 -82zM430 1669l76 84q18 23 43 32q12 4 18 4q49 -14 35 -61l-74 -86q-23 -25 -47 -33q-4 -4 -16 -4q-49 15 -35 64zM1138.5 2903.5q8.5 30.5 36 46t58.5 7.5 q29 -8 45 -35t8 -57.5t-36 -47t-58 -8.5q-29 8 -45.5 36t-8 58.5zM70 354l2 820q-3 13 -4 22q0 14 8 17q12 7 30 -7q2 0 50 -39l344 -282q49 -31 49 -64q0 -16 -10 -24l-336 -373q-76 -110 -109 -111q-4 0 -8 2q-16 6 -16 39zM117 1323q0 35 80 35h1409q16 0 57 -10 q27 -9 27 -24q0 -13 -21 -30l-735 -600q-6 -8 -19 -16q-27 -8 -43 16l-737 598q-18 19 -18 31zM156 199q-10 10 -10 23q0 34 57 95l399 441q16 16 31 16q41 0 104 -84l133 -133q10 -10 21 -12q25 -8 45 12l135 133q27 35 55 55q33 24 54 25q16 0 24 -14l400 -441 q37 -43 51 -67q9 -19 9 -32q0 -33 -58 -34h-1401q-33 1 -49 17zM1257 821q0 33 48 64l346 282q47 39 49 39q13 10 22 10q4 0 8 -2q7 -4 7 -19q0 -9 -2 -21l2 -820q0 -33 -17 -39q-4 -2 -8 -2q-33 0 -108 111l-338 373q-9 8 -9 24z" />
<glyph unicode="&#xc3;" d="M121 1663v778q0 25 16.5 41t38.5 16q25 0 41.5 -16.5t16.5 -40.5v-778q0 -25 -16.5 -41.5t-41.5 -16.5q-23 0 -39 16.5t-16 41.5zM344 1773v557q0 23 16.5 39.5t39 16.5t39 -16.5t16.5 -39.5v-557q0 -23 -16.5 -39t-39 -16t-39 16t-16.5 39zM568 1829v446q0 47 32.5 79 t77.5 32h447q45 0 77.5 -32t32.5 -79v-446q0 -47 -32.5 -79t-77.5 -32h-447q-45 0 -77.5 32t-32.5 79zM1348 1773v557q0 23 16.5 39.5t39 16.5t38.5 -16.5t16 -39.5v-557q0 -23 -16 -39t-38.5 -16t-39 16t-16.5 39zM1569 1663v778q0 25 16.5 41t40.5 16q23 0 39.5 -16.5 t16.5 -40.5v-778q0 -25 -16.5 -41.5t-39.5 -16.5q-25 0 -41 16.5t-16 41.5zM70 354l2 820q-3 13 -4 22q0 14 8 17q12 7 30 -7q2 0 50 -39l344 -282q49 -31 49 -64q0 -16 -10 -24l-336 -373q-76 -110 -109 -111q-4 0 -8 2q-16 6 -16 39zM117 1323q0 35 80 35h1409 q16 0 57 -10q27 -9 27 -24q0 -13 -21 -30l-735 -600q-6 -8 -19 -16q-27 -8 -43 16l-737 598q-18 19 -18 31zM156 199q-10 10 -10 23q0 34 57 95l399 441q16 16 31 16q41 0 104 -84l133 -133q10 -10 21 -12q25 -8 45 12l135 133q27 35 55 55q33 24 54 25q16 0 24 -14 l400 -441q37 -43 51 -67q9 -19 9 -32q0 -33 -58 -34h-1401q-33 1 -49 17zM1257 821q0 33 48 64l346 282q47 39 49 39q13 10 22 10q4 0 8 -2q7 -4 7 -19q0 -9 -2 -21l2 -820q0 -33 -17 -39q-4 -2 -8 -2q-33 0 -108 111l-338 373q-9 8 -9 24z" />
<glyph unicode="&#xc8;" d="M-260 2517q0 215 162.5 370t381.5 155t385 -155t166 -370q0 -168 -278 -559q-111 -158 -279 -352q-150 176 -270 354q-268 393 -268 557zM123 2714q0 -70 48 -118t115 -48q70 0 117 48t47 118q0 68 -47 116t-117 48q-68 0 -115.5 -48t-47.5 -116zM139 1300q0 104 70 150 q35 20 67 20q2 0 4 1q66 0 107 -87q16 -33 27 -86l22 -57l1051 2q61 0 90 -59q16 -33 16 -60v-395q0 -72 -53 -96q-33 -14 -55 -15l-987 -2l26 -112h959q20 0 37.5 -30t17.5 -56.5t-17.5 -56t-37.5 -29.5h-1032q-20 0 -38 43t-18 71q0 10 -69 437l-72 417h-115zM442 1014 q0 -23 16.5 -39.5t39.5 -16.5h55q23 0 39 16.5t16 39.5v57q0 23 -16.5 40t-38.5 17h-55q-23 0 -39.5 -17t-16.5 -40v-57zM498 162q0 49 29.5 80.5t76.5 31.5t79 -31.5t32 -80.5q0 -47 -33 -81t-78 -34t-75.5 34t-30.5 81zM498 786q0 -25 15 -40t38 -15h2q23 0 39 15.5 t16 39.5v58q0 23 -16.5 40t-38.5 17h-2q-23 0 -38 -17.5t-15 -39.5v-58zM662 786q0 -25 16 -40t39 -15h55q23 0 38 15.5t15 39.5v58q0 23 -16 40t-37 17h-55q-23 0 -39 -17.5t-16 -39.5v-58zM662 1014q0 -23 16 -39.5t39 -16.5h55q23 0 38 16.5t15 39.5v57q0 23 -16 40 t-37 17h-55q-23 0 -39 -17t-16 -40v-57zM881 786q0 -25 15 -40t38 -15h55q25 0 41.5 15.5t16.5 39.5v58q0 23 -17.5 40t-40.5 17h-55q-20 0 -36.5 -17.5t-16.5 -39.5v-58zM881 1014q0 -23 15 -39.5t38 -16.5h55q23 0 40.5 16.5t17.5 39.5v57q0 23 -17.5 40t-40.5 17h-55 q-20 0 -36.5 -17t-16.5 -40v-57zM1098 162q0 47 31.5 79.5t80.5 32.5q47 0 79 -32.5t32 -79.5q0 -49 -32 -82t-79 -33q-49 0 -80.5 33t-31.5 82zM1100 786q0 -25 16.5 -40t38.5 -15h55q23 0 38.5 15.5t15.5 39.5v58q0 23 -16.5 40t-37.5 17h-55q-23 0 -39 -17.5t-16 -39.5 v-58zM1100 1014q0 -23 16.5 -39.5t38.5 -16.5h55q23 0 38.5 16.5t15.5 39.5v57q0 23 -16.5 40t-37.5 17h-55q-23 0 -39 -17t-16 -40v-57zM1319 786q0 -25 15.5 -40t37.5 -15h55q23 0 39.5 15.5t16.5 39.5v58q0 23 -16.5 40t-39.5 17h-55q-20 0 -36.5 -17.5t-16.5 -39.5v-58z M1319 1014q0 -23 15.5 -39.5t37.5 -16.5h55q23 0 39.5 16.5t16.5 39.5v57q0 23 -16.5 40t-39.5 17h-55q-20 0 -36.5 -17t-16.5 -40v-57z" />
<glyph unicode="&#xca;" d="M-248 1935q-12 -25 15 -43l28 -14l928 -240q10 -4 31 -4q27 4 35 31l14 47q14 20 -20 98q-16 35 -41 76q-18 29 -27.5 66.5t-8.5 85.5t4 86t17.5 100.5t21.5 93.5t26.5 99.5t23.5 84.5q10 59 -10 107q-47 119 -228 170l-55 14q-186 49 -283 -31q-43 -37 -61 -90 q-6 -20 -23.5 -86.5t-26.5 -98.5t-27.5 -91.5t-35 -94t-39 -76.5t-49 -70t-57.5 -44q-35 -16 -72 -47q-76 -49 -69 -82zM-192 1669l76 84q18 23 43 32q12 4 18 4q49 -14 35 -61l-74 -86q-23 -25 -47 -33q-4 -4 -16 -4q-49 15 -35 64zM516.5 2903.5q8.5 30.5 36 46t58.5 7.5 q29 -8 45 -35t8 -57.5t-36 -47t-58 -8.5q-29 8 -45.5 36t-8 58.5zM139 1300q0 104 70 150q35 20 67 20q2 0 4 1q66 0 107 -87q16 -33 27 -86l22 -57l1051 2q61 0 90 -59q16 -33 16 -60v-395q0 -72 -53 -96q-33 -14 -55 -15l-987 -2l26 -112h959q20 0 37.5 -30t17.5 -56.5 t-17.5 -56t-37.5 -29.5h-1032q-20 0 -38 43t-18 71q0 10 -69 437l-72 417h-115zM442 1014q0 -23 16.5 -39.5t39.5 -16.5h55q23 0 39 16.5t16 39.5v57q0 23 -16.5 40t-38.5 17h-55q-23 0 -39.5 -17t-16.5 -40v-57zM498 162q0 49 29.5 80.5t76.5 31.5t79 -31.5t32 -80.5 q0 -47 -33 -81t-78 -34t-75.5 34t-30.5 81zM498 786q0 -25 15 -40t38 -15h2q23 0 39 15.5t16 39.5v58q0 23 -16.5 40t-38.5 17h-2q-23 0 -38 -17.5t-15 -39.5v-58zM662 786q0 -25 16 -40t39 -15h55q23 0 38 15.5t15 39.5v58q0 23 -16 40t-37 17h-55q-23 0 -39 -17.5 t-16 -39.5v-58zM662 1014q0 -23 16 -39.5t39 -16.5h55q23 0 38 16.5t15 39.5v57q0 23 -16 40t-37 17h-55q-23 0 -39 -17t-16 -40v-57zM881 786q0 -25 15 -40t38 -15h55q25 0 41.5 15.5t16.5 39.5v58q0 23 -17.5 40t-40.5 17h-55q-20 0 -36.5 -17.5t-16.5 -39.5v-58z M881 1014q0 -23 15 -39.5t38 -16.5h55q23 0 40.5 16.5t17.5 39.5v57q0 23 -17.5 40t-40.5 17h-55q-20 0 -36.5 -17t-16.5 -40v-57zM1098 162q0 47 31.5 79.5t80.5 32.5q47 0 79 -32.5t32 -79.5q0 -49 -32 -82t-79 -33q-49 0 -80.5 33t-31.5 82zM1100 786q0 -25 16.5 -40 t38.5 -15h55q23 0 38.5 15.5t15.5 39.5v58q0 23 -16.5 40t-37.5 17h-55q-23 0 -39 -17.5t-16 -39.5v-58zM1100 1014q0 -23 16.5 -39.5t38.5 -16.5h55q23 0 38.5 16.5t15.5 39.5v57q0 23 -16.5 40t-37.5 17h-55q-23 0 -39 -17t-16 -40v-57zM1319 786q0 -25 15.5 -40t37.5 -15 h55q23 0 39.5 15.5t16.5 39.5v58q0 23 -16.5 40t-39.5 17h-55q-20 0 -36.5 -17.5t-16.5 -39.5v-58zM1319 1014q0 -23 15.5 -39.5t37.5 -16.5h55q23 0 39.5 16.5t16.5 39.5v57q0 23 -16.5 40t-39.5 17h-55q-20 0 -36.5 -17t-16.5 -40v-57z" />
<glyph unicode="&#xcc;" d="M379 2517q0 215 162.5 370t381.5 155t385 -155t166 -370q0 -168 -278 -559q-111 -158 -279 -352q-150 176 -270 354q-268 393 -268 557zM762 2714q0 -70 48 -118t115 -48q70 0 117 48t47 118q0 68 -47 116t-117 48q-68 0 -115.5 -48t-47.5 -116zM164 223v1059 q0 70 48 119t118 49h1173q70 0 118 -49t48 -119v-1059q0 -70 -48 -119t-118 -49h-1173q-70 0 -118 49t-48 119zM274 287q0 -82 82 -111q25 -8 84 -8h121q23 0 39 17.5t16 41.5q0 23 -16 39.5t-39 16.5h-121q-35 0 -47 30q-6 12 -6 31v107q0 25 -15.5 39t-40 14t-41 -14.5 t-16.5 -38.5v-164zM274 668q0 -25 17.5 -41.5t40 -16.5t39 16.5t16.5 41.5v233q0 23 -16.5 39t-39 16t-40 -16t-17.5 -39v-233zM274 1114q0 -55 52 -55q25 0 43 15.5t18 39.5v66q0 37 29 45q14 6 28 4h107q23 0 39 18.5t16 42.5q0 49 -55 49h-145q-80 0 -117 -79 q-14 -35 -15 -80v-66zM586 793q0 -12 35 -13h155v-284q0 -31 29 -45q12 -6 26 -7h170q35 0 48 27q8 10 8 29v280h160q18 0 24 2q18 4 2 21l-319 311l-11 4q-10 2 -20 -4l-301 -309q-6 -6 -6 -12zM715 227q0 -25 17.5 -42t39.5 -17h289q23 0 37 17.5t14 41.5q0 23 -14.5 39.5 t-36.5 16.5h-289q-23 0 -40 -16.5t-17 -39.5zM715 1286q0 -25 16.5 -42t38.5 -17h291q23 0 39 16.5t16 40.5q0 23 -16.5 39t-38.5 16h-291q-23 0 -39 -15t-16 -38zM1221 227q0 -25 16 -40t41 -15h147q82 0 117 82q16 45 17 80v117q0 25 -16.5 41t-39.5 16q-25 0 -41 -16.5 t-16 -40.5l2 -115q0 -35 -33 -47q-14 -8 -31 -6h-106q-25 0 -41 -16.5t-16 -39.5zM1221 1286q0 -25 16 -42t39 -17h119q31 0 47 -29q6 -14 6 -29v-55q0 -25 15.5 -40t39.5 -15q23 0 39.5 15.5t16.5 39.5v109q0 82 -82 110q-25 8 -82 8h-119q-23 0 -39 -16t-16 -39zM1448 664 q0 -25 15.5 -40.5t39.5 -15.5q23 0 39.5 15.5t16.5 40.5v231q0 25 -16.5 40t-39.5 15q-25 0 -40 -15t-15 -40v-231z" />
<glyph unicode="&#xce;" d="M391 1935q-12 -25 15 -43l28 -14l928 -240q10 -4 31 -4q27 4 35 31l14 47q14 20 -20 98q-16 35 -41 76q-18 29 -27.5 66.5t-8.5 85.5t4 86t17.5 100.5t21.5 93.5t26.5 99.5t23.5 84.5q10 59 -10 107q-47 119 -228 170l-55 14q-186 49 -283 -31q-43 -37 -61 -90 q-6 -20 -23.5 -86.5t-26.5 -98.5t-27.5 -91.5t-35 -94t-39 -76.5t-49 -70t-57.5 -44q-35 -16 -72 -47q-76 -49 -69 -82zM447 1669l76 84q18 23 43 32q12 4 18 4q49 -14 35 -61l-74 -86q-23 -25 -47 -33q-4 -4 -16 -4q-49 15 -35 64zM1155.5 2903.5q8.5 30.5 36 46t58.5 7.5 q29 -8 45 -35t8 -57.5t-36 -47t-58 -8.5q-29 8 -45.5 36t-8 58.5zM164 223v1059q0 70 48 119t118 49h1173q70 0 118 -49t48 -119v-1059q0 -70 -48 -119t-118 -49h-1173q-70 0 -118 49t-48 119zM274 287q0 -82 82 -111q25 -8 84 -8h121q23 0 39 17.5t16 41.5q0 23 -16 39.5 t-39 16.5h-121q-35 0 -47 30q-6 12 -6 31v107q0 25 -15.5 39t-40 14t-41 -14.5t-16.5 -38.5v-164zM274 668q0 -25 17.5 -41.5t40 -16.5t39 16.5t16.5 41.5v233q0 23 -16.5 39t-39 16t-40 -16t-17.5 -39v-233zM274 1114q0 -55 52 -55q25 0 43 15.5t18 39.5v66q0 37 29 45 q14 6 28 4h107q23 0 39 18.5t16 42.5q0 49 -55 49h-145q-80 0 -117 -79q-14 -35 -15 -80v-66zM586 793q0 -12 35 -13h155v-284q0 -31 29 -45q12 -6 26 -7h170q35 0 48 27q8 10 8 29v280h160q18 0 24 2q18 4 2 21l-319 311l-11 4q-10 2 -20 -4l-301 -309q-6 -6 -6 -12z M715 227q0 -25 17.5 -42t39.5 -17h289q23 0 37 17.5t14 41.5q0 23 -14.5 39.5t-36.5 16.5h-289q-23 0 -40 -16.5t-17 -39.5zM715 1286q0 -25 16.5 -42t38.5 -17h291q23 0 39 16.5t16 40.5q0 23 -16.5 39t-38.5 16h-291q-23 0 -39 -15t-16 -38zM1221 227q0 -25 16 -40t41 -15 h147q82 0 117 82q16 45 17 80v117q0 25 -16.5 41t-39.5 16q-25 0 -41 -16.5t-16 -40.5l2 -115q0 -35 -33 -47q-14 -8 -31 -6h-106q-25 0 -41 -16.5t-16 -39.5zM1221 1286q0 -25 16 -42t39 -17h119q31 0 47 -29q6 -14 6 -29v-55q0 -25 15.5 -40t39.5 -15q23 0 39.5 15.5 t16.5 39.5v109q0 82 -82 110q-25 8 -82 8h-119q-23 0 -39 -16t-16 -39zM1448 664q0 -25 15.5 -40.5t39.5 -15.5q23 0 39.5 15.5t16.5 40.5v231q0 25 -16.5 40t-39.5 15q-25 0 -40 -15t-15 -40v-231z" />
<glyph unicode="&#xd1;" d="M242 1663v778q0 25 16.5 41t38.5 16q25 0 41.5 -16.5t16.5 -40.5v-778q0 -25 -16.5 -41.5t-41.5 -16.5q-23 0 -39 16.5t-16 41.5zM465 1773v557q0 23 16.5 39.5t39 16.5t39 -16.5t16.5 -39.5v-557q0 -23 -16.5 -39t-39 -16t-39 16t-16.5 39zM689 1829v446q0 47 32.5 79 t77.5 32h447q45 0 77.5 -32t32.5 -79v-446q0 -47 -32.5 -79t-77.5 -32h-447q-45 0 -77.5 32t-32.5 79zM1469 1773v557q0 23 16.5 39.5t39 16.5t38.5 -16.5t16 -39.5v-557q0 -23 -16 -39t-38.5 -16t-39 16t-16.5 39zM1690 1663v778q0 25 16.5 41t40.5 16q23 0 39.5 -16.5 t16.5 -40.5v-778q0 -25 -16.5 -41.5t-39.5 -16.5q-25 0 -41 16.5t-16 41.5zM84 373v944l498 -166l-7 -934zM141 825l60 -59q18 -18 41 0q18 20 0 39l-62 61q-18 18 -39 0q-9 -11 -9 -21.5t9 -19.5zM307 659l62 -59q18 -23 37 0q20 18 0 39l-60 59q-18 18 -39 0q-8 -9 -8 -19 t8 -20zM414 514q0 -12 9 -20.5t19 -8.5h62q29 0 28 29q0 27 -28 27h-62q-10 0 -19 -8.5t-9 -18.5zM637 209v938l385 174l-2 -938zM694 487q23 -18 41 0l60 60l4 14q4 18 -4 27q-20 18 -39 0l-62 -62q-9 -9 -9 -19t9 -20zM862 653q18 -18 39 0l62 60l2 16q4 16 -2 23 q-20 20 -41 0l-60 -60q-9 -10 -9 -20t9 -19zM1079 373l4 946l162 -166v-532q0 10 -6 18l-59 59q-23 23 -41 0q-20 -18 0 -39l59 -59q20 -18 41 0q6 10 6 18v-413zM1245 618v3v-3zM1305 211v938l438 115l-2 -928zM1360 653q10 -9 20 -9l21 9l59 60l4 16q4 18 -4 23 q-18 23 -39 0l-61 -60q-8 -10 -8 -20t8 -19zM1528 821q9 -11 18 -11l19 11l61 58l4 16q2 14 -4 25q-10 8 -20 8t-19 -8l-59 -62q-11 -9 -11 -18.5t11 -18.5z" />
<glyph unicode="&#xd2;" d="M443 2517q0 215 162.5 370t381.5 155t385 -155t166 -370q0 -168 -278 -559q-111 -158 -279 -352q-150 176 -270 354q-268 393 -268 557zM826 2714q0 -70 48 -118t115 -48q70 0 117 48t47 118q0 68 -47 116t-117 48q-68 0 -115.5 -48t-47.5 -116zM408 330v643 q0 20 13 33.5t34 13.5h1058q20 0 34 -13.5t14 -33.5v-643q0 -20 -13.5 -33.5t-34.5 -13.5h-460v-97l90 -129h-316l88 133v93h-460q-20 0 -33.5 13.5t-13.5 33.5zM547 422h876v459h-876v-459zM752 1251l137 -37v269h184v-271l139 35l-233 -190z" />
<glyph unicode="&#xd4;" d="M454 1935q-12 -25 15 -43l28 -14l928 -240q10 -4 31 -4q27 4 35 31l14 47q14 20 -20 98q-16 35 -41 76q-18 29 -27.5 66.5t-8.5 85.5t4 86t17.5 100.5t21.5 93.5t26.5 99.5t23.5 84.5q10 59 -10 107q-47 119 -228 170l-55 14q-186 49 -283 -31q-43 -37 -61 -90 q-6 -20 -23.5 -86.5t-26.5 -98.5t-27.5 -91.5t-35 -94t-39 -76.5t-49 -70t-57.5 -44q-35 -16 -72 -47q-76 -49 -69 -82zM510 1669l76 84q18 23 43 32q12 4 18 4q49 -14 35 -61l-74 -86q-23 -25 -47 -33q-4 -4 -16 -4q-49 15 -35 64zM1218.5 2903.5q8.5 30.5 36 46t58.5 7.5 q29 -8 45 -35t8 -57.5t-36 -47t-58 -8.5q-29 8 -45.5 36t-8 58.5zM408 330v643q0 20 13 33.5t34 13.5h1058q20 0 34 -13.5t14 -33.5v-643q0 -20 -13.5 -33.5t-34.5 -13.5h-460v-97l90 -129h-316l88 133v93h-460q-20 0 -33.5 13.5t-13.5 33.5zM547 422h876v459h-876v-459z M752 1251l137 -37v269h184v-271l139 35l-233 -190z" />
<glyph unicode="&#xd5;" d="M201 1663v778q0 25 16.5 41t38.5 16q25 0 41.5 -16.5t16.5 -40.5v-778q0 -25 -16.5 -41.5t-41.5 -16.5q-23 0 -39 16.5t-16 41.5zM424 1773v557q0 23 16.5 39.5t39 16.5t39 -16.5t16.5 -39.5v-557q0 -23 -16.5 -39t-39 -16t-39 16t-16.5 39zM648 1829v446q0 47 32.5 79 t77.5 32h447q45 0 77.5 -32t32.5 -79v-446q0 -47 -32.5 -79t-77.5 -32h-447q-45 0 -77.5 32t-32.5 79zM1428 1773v557q0 23 16.5 39.5t39 16.5t38.5 -16.5t16 -39.5v-557q0 -23 -16 -39t-38.5 -16t-39 16t-16.5 39zM1649 1663v778q0 25 16.5 41t40.5 16q23 0 39.5 -16.5 t16.5 -40.5v-778q0 -25 -16.5 -41.5t-39.5 -16.5q-25 0 -41 16.5t-16 41.5zM408 330v643q0 20 13 33.5t34 13.5h1058q20 0 34 -13.5t14 -33.5v-643q0 -20 -13.5 -33.5t-34.5 -13.5h-460v-97l90 -129h-316l88 133v93h-460q-20 0 -33.5 13.5t-13.5 33.5zM547 422h876v459h-876 v-459zM752 1251l137 -37v269h184v-271l139 35l-233 -190z" />
<glyph unicode="&#xd9;" d="M852 2523q0 215 162.5 370t381.5 155t385 -155t166 -370q0 -168 -278 -559q-111 -158 -279 -352q-150 176 -270 354q-268 393 -268 557zM1235 2720q0 -70 48 -118t115 -48q70 0 117 48t47 118q0 68 -47 116t-117 48q-68 0 -115.5 -48t-47.5 -116zM449 326 q0 111 67.5 191.5t157.5 80.5q51 0 96 -29l59 107q-16 20 -65 86.5t-76 101.5l-96 123q-70 90 -105.5 186.5t-35.5 260.5q0 31 22 45q6 4 25 8l440 -643l14 4l439 641q14 0 20 -6q23 -12 23 -45q0 -168 -20.5 -244t-84.5 -156l-282 -364l71 -105q45 29 96 29q90 0 158 -81 t68 -191q0 -115 -67.5 -195t-158 -80t-154 80t-63.5 195q0 90 41 159l-98 105l-94 -96l4 -9q41 -70 41 -159q0 -115 -63.5 -195t-153.5 -80t-157.5 80t-67.5 195zM590 321.5q0 -51.5 24.5 -87t59.5 -35.5q33 0 56.5 35.5t23.5 87t-23.5 87t-56.5 35.5q-35 0 -59.5 -35.5 t-24.5 -87zM1135 321.5q0 -51.5 23.5 -87t55.5 -35.5q35 0 59.5 35.5t24.5 87t-24.5 87t-59.5 35.5q-33 0 -56 -35.5t-23 -87z" />
<glyph unicode="&#xdb;" d="M864 1942q-12 -25 15 -43l28 -14l928 -240q10 -4 31 -4q27 4 35 31l14 47q14 20 -20 98q-16 35 -41 76q-18 29 -27.5 66.5t-8.5 85.5t4 86t17.5 100.5t21.5 93.5t26.5 99.5t23.5 84.5q10 59 -10 107q-47 119 -228 170l-55 14q-186 49 -283 -31q-43 -37 -61 -90 q-6 -20 -23.5 -86.5t-26.5 -98.5t-27.5 -91.5t-35 -94t-39 -76.5t-49 -70t-57.5 -44q-35 -16 -72 -47q-76 -49 -69 -82zM920 1676l76 84q18 23 43 32q12 4 18 4q49 -14 35 -61l-74 -86q-23 -25 -47 -33q-4 -4 -16 -4q-49 15 -35 64zM1628.5 2910.5q8.5 30.5 36 46t58.5 7.5 q29 -8 45 -35t8 -57.5t-36 -47t-58 -8.5q-29 8 -45.5 36t-8 58.5zM449 326q0 111 67.5 191.5t157.5 80.5q51 0 96 -29l59 107q-16 20 -65 86.5t-76 101.5l-96 123q-70 90 -105.5 186.5t-35.5 260.5q0 31 22 45q6 4 25 8l440 -643l14 4l439 641q14 0 20 -6q23 -12 23 -45 q0 -168 -20.5 -244t-84.5 -156l-282 -364l71 -105q45 29 96 29q90 0 158 -81t68 -191q0 -115 -67.5 -195t-158 -80t-154 80t-63.5 195q0 90 41 159l-98 105l-94 -96l4 -9q41 -70 41 -159q0 -115 -63.5 -195t-153.5 -80t-157.5 80t-67.5 195zM590 321.5q0 -51.5 24.5 -87 t59.5 -35.5q33 0 56.5 35.5t23.5 87t-23.5 87t-56.5 35.5q-35 0 -59.5 -35.5t-24.5 -87zM1135 321.5q0 -51.5 23.5 -87t55.5 -35.5q35 0 59.5 35.5t24.5 87t-24.5 87t-59.5 35.5q-33 0 -56 -35.5t-23 -87z" />
<glyph unicode="&#xe0;" d="M414 2490q0 215 162.5 370t381.5 155t385 -155t166 -370q0 -168 -278 -559q-111 -158 -279 -352q-150 176 -270 354q-268 393 -268 557zM797 2687q0 -70 48 -118t115 -48q70 0 117 48t47 118q0 68 -47 116t-117 48q-68 0 -115.5 -48t-47.5 -116zM242 100q0 10 -1 20 q0 88 17 150q10 31 21 41q2 2 23.5 25.5t35.5 33t46 28t77 30.5t104 21q176 31 187 137v26l-7 72q-49 29 -86 86q-18 29 -26 51q-31 14 -44.5 27.5t-15.5 21t-4 31.5q-6 41 -6 70q0 37 10 53q4 12 21 16q16 0 18 15q4 6 0 16q-3 31 -3 78v25q1 63 5 90q4 43 30 90t75 57 q45 8 57 10q4 0 15 2q6 2 21 9.5t42 7.5l98 16q27 0 59.5 -33.5t43 -36t33 2t51.5 0.5q27 -4 42 -27t18 -40t5 -52l2 -35q6 -53 6 -95.5t-6 -74.5q-4 -12 -2 -16q4 -14 17 -13q16 -4 24 -18q15 -23 16 -71q0 -22 -4 -50q-2 -14 -9 -23.5t-12 -13.5t-26 -16l-30 -19 q-10 -29 -25 -53q-33 -59 -74 -94q-4 -20 -5 -44t-1 -26q-2 -8 -2 -16v-2q-2 -11 -2 -22q0 -71 109 -105q29 -8 65 -14q51 -8 93 -19.5t67 -21t49.5 -25.5t34.5 -24.5t26.5 -26t20.5 -21.5q12 -12 23 -41q23 -66 26 -170h-1343z" />
<glyph unicode="&#xe2;" d="M426 1909q-12 -25 15 -43l28 -14l928 -240q10 -4 31 -4q27 4 35 31l14 47q14 20 -20 98q-16 35 -41 76q-18 29 -27.5 66.5t-8.5 85.5t4 86t17.5 100.5t21.5 93.5t26.5 99.5t23.5 84.5q10 59 -10 107q-47 119 -228 170l-55 14q-186 49 -283 -31q-43 -37 -61 -90 q-6 -20 -23.5 -86.5t-26.5 -98.5t-27.5 -91.5t-35 -94t-39 -76.5t-49 -70t-57.5 -44q-35 -16 -72 -47q-76 -49 -69 -82zM482 1643l76 84q18 23 43 32q12 4 18 4q49 -14 35 -61l-74 -86q-23 -25 -47 -33q-4 -4 -16 -4q-49 15 -35 64zM1190.5 2877.5q8.5 30.5 36 46t58.5 7.5 q29 -8 45 -35t8 -57.5t-36 -47t-58 -8.5q-29 8 -45.5 36t-8 58.5zM242 100q0 10 -1 20q0 88 17 150q10 31 21 41q2 2 23.5 25.5t35.5 33t46 28t77 30.5t104 21q176 31 187 137v26l-7 72q-49 29 -86 86q-18 29 -26 51q-31 14 -44.5 27.5t-15.5 21t-4 31.5q-6 41 -6 70 q0 37 10 53q4 12 21 16q16 0 18 15q4 6 0 16q-3 31 -3 78v25q1 63 5 90q4 43 30 90t75 57q45 8 57 10q4 0 15 2q6 2 21 9.5t42 7.5l98 16q27 0 59.5 -33.5t43 -36t33 2t51.5 0.5q27 -4 42 -27t18 -40t5 -52l2 -35q6 -53 6 -95.5t-6 -74.5q-4 -12 -2 -16q4 -14 17 -13 q16 -4 24 -18q15 -23 16 -71q0 -22 -4 -50q-2 -14 -9 -23.5t-12 -13.5t-26 -16l-30 -19q-10 -29 -25 -53q-33 -59 -74 -94q-4 -20 -5 -44t-1 -26q-2 -8 -2 -16v-2q-2 -11 -2 -22q0 -71 109 -105q29 -8 65 -14q51 -8 93 -19.5t67 -21t49.5 -25.5t34.5 -24.5t26.5 -26 t20.5 -21.5q12 -12 23 -41q23 -66 26 -170h-1343z" />
<glyph unicode="&#xe3;" d="M172 1637v778q0 25 16.5 41t38.5 16q25 0 41.5 -16.5t16.5 -40.5v-778q0 -25 -16.5 -41.5t-41.5 -16.5q-23 0 -39 16.5t-16 41.5zM395 1747v557q0 23 16.5 39.5t39 16.5t39 -16.5t16.5 -39.5v-557q0 -23 -16.5 -39t-39 -16t-39 16t-16.5 39zM619 1803v446q0 47 32.5 79 t77.5 32h447q45 0 77.5 -32t32.5 -79v-446q0 -47 -32.5 -79t-77.5 -32h-447q-45 0 -77.5 32t-32.5 79zM1399 1747v557q0 23 16.5 39.5t39 16.5t38.5 -16.5t16 -39.5v-557q0 -23 -16 -39t-38.5 -16t-39 16t-16.5 39zM1620 1637v778q0 25 16.5 41t40.5 16q23 0 39.5 -16.5 t16.5 -40.5v-778q0 -25 -16.5 -41.5t-39.5 -16.5q-25 0 -41 16.5t-16 41.5zM242 100q0 10 -1 20q0 88 17 150q10 31 21 41q2 2 23.5 25.5t35.5 33t46 28t77 30.5t104 21q176 31 187 137v26l-7 72q-49 29 -86 86q-18 29 -26 51q-31 14 -44.5 27.5t-15.5 21t-4 31.5 q-6 41 -6 70q0 37 10 53q4 12 21 16q16 0 18 15q4 6 0 16q-3 31 -3 78v25q1 63 5 90q4 43 30 90t75 57q45 8 57 10q4 0 15 2q6 2 21 9.5t42 7.5l98 16q27 0 59.5 -33.5t43 -36t33 2t51.5 0.5q27 -4 42 -27t18 -40t5 -52l2 -35q6 -53 6 -95.5t-6 -74.5q-4 -12 -2 -16 q4 -14 17 -13q16 -4 24 -18q15 -23 16 -71q0 -22 -4 -50q-2 -14 -9 -23.5t-12 -13.5t-26 -16l-30 -19q-10 -29 -25 -53q-33 -59 -74 -94q-4 -20 -5 -44t-1 -26q-2 -8 -2 -16v-2q-2 -11 -2 -22q0 -71 109 -105q29 -8 65 -14q51 -8 93 -19.5t67 -21t49.5 -25.5t34.5 -24.5 t26.5 -26t20.5 -21.5q12 -12 23 -41q23 -66 26 -170h-1343z" />
<glyph unicode="&#xe8;" d="M68 2472q0 215 162.5 370t381.5 155t385 -155t166 -370q0 -168 -278 -559q-111 -158 -279 -352q-150 176 -270 354q-268 393 -268 557zM451 2669q0 -70 48 -118t115 -48q70 0 117 48t47 118q0 68 -47 116t-117 48q-68 0 -115.5 -48t-47.5 -116zM59 160q0 102 25 176 q14 43 27 55q35 35 125 84t192 66q43 6 69.5 28.5t34 49t8.5 53t-1 45.5l-2 16q2 0 2 4q0 25 -2 35q-66 66 -91 146q-12 33 -12 63q-2 18 -2 57q0 72 2 107q6 147 90 205q37 25 82 30l125 -45q35 0 76 -22q76 -45 92 -168v-178q-6 -80 -55 -146q-14 -18 -47 -43 q-4 -18 -4 -33q0 -4 2 -4v-16q-2 -18 2 -47t15 -56.5t41 -51t73 -29.5q150 -25 305 -150q6 -14 16 -39q12 -49 29 -192h-1217zM1014 842v51v127q18 123 92 170q31 20 70 24l102 -36q35 -4 65 -19q68 -39 89 -139v-191q-16 -82 -60 -120q-18 -23 -41 -35q-2 -8 -2 -29 q0 -4 2 -2q4 0 1 -14.5t2 -38t13.5 -47t32 -43t60.5 -25.5q84 -12 152.5 -52t99.5 -71q10 -14 16 -35q16 -43 39 -157l-416 4q-18 193 -20 205l-8 34q-25 35 -189 138q8 25 7 46t-4 35.5t-1 14.5t2 2q0 18 -2 27q-66 57 -90 122q-10 29 -12 54z" />
<glyph unicode="&#xea;" d="M79 1890q-12 -25 15 -43l28 -14l928 -240q10 -4 31 -4q27 4 35 31l14 47q14 20 -20 98q-16 35 -41 76q-18 29 -27.5 66.5t-8.5 85.5t4 86t17.5 100.5t21.5 93.5t26.5 99.5t23.5 84.5q10 59 -10 107q-47 119 -228 170l-55 14q-186 49 -283 -31q-43 -37 -61 -90 q-6 -20 -23.5 -86.5t-26.5 -98.5t-27.5 -91.5t-35 -94t-39 -76.5t-49 -70t-57.5 -44q-35 -16 -72 -47q-76 -49 -69 -82zM135 1624l76 84q18 23 43 32q12 4 18 4q49 -14 35 -61l-74 -86q-23 -25 -47 -33q-4 -4 -16 -4q-49 15 -35 64zM843.5 2858.5q8.5 30.5 36 46t58.5 7.5 q29 -8 45 -35t8 -57.5t-36 -47t-58 -8.5q-29 8 -45.5 36t-8 58.5zM59 160q0 102 25 176q14 43 27 55q35 35 125 84t192 66q43 6 69.5 28.5t34 49t8.5 53t-1 45.5l-2 16q2 0 2 4q0 25 -2 35q-66 66 -91 146q-12 33 -12 63q-2 18 -2 57q0 72 2 107q6 147 90 205q37 25 82 30 l125 -45q35 0 76 -22q76 -45 92 -168v-178q-6 -80 -55 -146q-14 -18 -47 -43q-4 -18 -4 -33q0 -4 2 -4v-16q-2 -18 2 -47t15 -56.5t41 -51t73 -29.5q150 -25 305 -150q6 -14 16 -39q12 -49 29 -192h-1217zM1014 842v51v127q18 123 92 170q31 20 70 24l102 -36q35 -4 65 -19 q68 -39 89 -139v-191q-16 -82 -60 -120q-18 -23 -41 -35q-2 -8 -2 -29q0 -4 2 -2q4 0 1 -14.5t2 -38t13.5 -47t32 -43t60.5 -25.5q84 -12 152.5 -52t99.5 -71q10 -14 16 -35q16 -43 39 -157l-416 4q-18 193 -20 205l-8 34q-25 35 -189 138q8 25 7 46t-4 35.5t-1 14.5t2 2 q0 18 -2 27q-66 57 -90 122q-10 29 -12 54z" />
<glyph unicode="&#xec;" d="M383 2472q0 215 162.5 370t381.5 155t385 -155t166 -370q0 -168 -278 -559q-111 -158 -279 -352q-150 176 -270 354q-268 393 -268 557zM766 2669q0 -70 48 -118t115 -48q70 0 117 48t47 118q0 68 -47 116t-117 48q-68 0 -115.5 -48t-47.5 -116zM264 750v30q0 82 168 115 q-96 96 -96 153q0 16 8 29l16 29q23 38 84 38q48 0 119 -24q-17 70 -17 117q0 66 34 86l26 16q18 10 37 10q62 0 145 -100q12 53 43 110.5t74 57.5h31q84 0 115 -168q96 96 153 96q16 0 29 -8l27 -16q39 -23 39 -85q0 -47 -23 -116q74 22 122 23q62 0 83 -37l16 -29 q7 -13 7 -29q0 -58 -95 -153q164 -35 164 -115v-30q0 -72 -166 -117q20 -16 41.5 -41t44.5 -68q11 -22 11 -40t-11 -33l-16 -27q-17 -31 -84 -32q-46 0 -117 16q26 -70 26 -118q0 -61 -42 -85l-27 -15q-14 -8 -31 -7q-58 0 -151 93q-39 -166 -115 -165h-31q-43 0 -73.5 55 t-43.5 108q-81 -97 -143 -96q-21 0 -39 10l-26 17q-32 19 -33 86q0 47 16 117q-72 -19 -120 -20q-62 0 -81 34l-14 29q-9 17 -9 35q0 28 20 60q34 52 77 87q-172 43 -172 117zM631 764q0 -121 84 -205t205 -84q119 0 202.5 85t83.5 204t-84 203t-202.5 84t-203.5 -84 t-85 -203zM782 289l4 -4v2q-2 0 -4 2zM793 760q0 53 38.5 92t92 39t92.5 -39t39 -92t-39 -92t-92.5 -39t-92 39t-38.5 92zM1272 1112l4 -2l-2 4z" />
<glyph unicode="&#xee;" d="M395 1890q-12 -25 15 -43l28 -14l928 -240q10 -4 31 -4q27 4 35 31l14 47q14 20 -20 98q-16 35 -41 76q-18 29 -27.5 66.5t-8.5 85.5t4 86t17.5 100.5t21.5 93.5t26.5 99.5t23.5 84.5q10 59 -10 107q-47 119 -228 170l-55 14q-186 49 -283 -31q-43 -37 -61 -90 q-6 -20 -23.5 -86.5t-26.5 -98.5t-27.5 -91.5t-35 -94t-39 -76.5t-49 -70t-57.5 -44q-35 -16 -72 -47q-76 -49 -69 -82zM451 1624l76 84q18 23 43 32q12 4 18 4q49 -14 35 -61l-74 -86q-23 -25 -47 -33q-4 -4 -16 -4q-49 15 -35 64zM1159.5 2858.5q8.5 30.5 36 46t58.5 7.5 q29 -8 45 -35t8 -57.5t-36 -47t-58 -8.5q-29 8 -45.5 36t-8 58.5zM264 750v30q0 82 168 115q-96 96 -96 153q0 16 8 29l16 29q23 38 84 38q48 0 119 -24q-17 70 -17 117q0 66 34 86l26 16q18 10 37 10q62 0 145 -100q12 53 43 110.5t74 57.5h31q84 0 115 -168q96 96 153 96 q16 0 29 -8l27 -16q39 -23 39 -85q0 -47 -23 -116q74 22 122 23q62 0 83 -37l16 -29q7 -13 7 -29q0 -58 -95 -153q164 -35 164 -115v-30q0 -72 -166 -117q20 -16 41.5 -41t44.5 -68q11 -22 11 -40t-11 -33l-16 -27q-17 -31 -84 -32q-46 0 -117 16q26 -70 26 -118 q0 -61 -42 -85l-27 -15q-14 -8 -31 -7q-58 0 -151 93q-39 -166 -115 -165h-31q-43 0 -73.5 55t-43.5 108q-81 -97 -143 -96q-21 0 -39 10l-26 17q-32 19 -33 86q0 47 16 117q-72 -19 -120 -20q-62 0 -81 34l-14 29q-9 17 -9 35q0 28 20 60q34 52 77 87q-172 43 -172 117z M631 764q0 -121 84 -205t205 -84q119 0 202.5 85t83.5 204t-84 203t-202.5 84t-203.5 -84t-85 -203zM782 289l4 -4v2q-2 0 -4 2zM793 760q0 53 38.5 92t92 39t92.5 -39t39 -92t-39 -92t-92.5 -39t-92 39t-38.5 92zM1272 1112l4 -2l-2 4z" />
<glyph unicode="&#xf1;" d="M160 1674v778q0 25 16.5 41t38.5 16q25 0 41.5 -16.5t16.5 -40.5v-778q0 -25 -16.5 -41.5t-41.5 -16.5q-23 0 -39 16.5t-16 41.5zM383 1784v557q0 23 16.5 39.5t39 16.5t39 -16.5t16.5 -39.5v-557q0 -23 -16.5 -39t-39 -16t-39 16t-16.5 39zM607 1840v446q0 47 32.5 79 t77.5 32h447q45 0 77.5 -32t32.5 -79v-446q0 -47 -32.5 -79t-77.5 -32h-447q-45 0 -77.5 32t-32.5 79zM1387 1784v557q0 23 16.5 39.5t39 16.5t38.5 -16.5t16 -39.5v-557q0 -23 -16 -39t-38.5 -16t-39 16t-16.5 39zM1608 1674v778q0 25 16.5 41t40.5 16q23 0 39.5 -16.5 t16.5 -40.5v-778q0 -25 -16.5 -41.5t-39.5 -16.5q-25 0 -41 16.5t-16 41.5zM528 90q16 -16 39 -24q5 -1 10 -1l56 21q16 16 22 27l166 333q20 74 47 78q10 0 23 -12l117 -133q20 -33 34 -154q2 -31 7 -100q-12 -37 24 -49q10 -4 41 -8q39 0 62 22q4 10 8 23v178 q-14 133 -103 268q-49 78 -88 123v57l29 162q20 27 41 19q12 -8 16 -13q-4 -29 45 -69q41 -31 47 -33l115 -43q37 -14 62 -2l14 14q7 18 7 32q0 11 -5 19q-6 10 -14 13l-103 57q-84 49 -106 119q-12 33 -11 65q-12 76 -67 123q-25 18 -55 33q-29 23 -78 22q-4 0 -11.5 -1 t-13.5 -2t-12 -3l-272 -131q-14 -8 -33 -35q-4 -12 -4 -18v-287q-14 -37 6 -45q4 -6 18 -6q43 14 54 25q4 4 8 12l8 221q4 8 24 27l21 14l45 39q31 20 39 8q4 -8 2 -18q-51 -78 -78 -160q-10 -35 -10 -59v-207l-189 -449q-20 -30 -19 -54q0 -22 15 -38zM952 1376q0 47 35 82 t84 35q51 0 85 -34t34 -83q0 -51 -34 -85t-85 -34q-49 0 -84 34t-35 85z" />
<glyph unicode="&#xf2;" d="M582 2472q0 215 162.5 370t381.5 155t385 -155t166 -370q0 -168 -278 -559q-111 -158 -279 -352q-150 176 -270 354q-268 393 -268 557zM965 2669q0 -70 48 -118t115 -48q70 0 117 48t47 118q0 68 -47 116t-117 48q-68 0 -115.5 -48t-47.5 -116zM317 328q8 -39 54 -56 q29 -8 47 -8h385q10 0 20 17q19 29 19 92v24q12 125 37 150q8 10 20 0q96 -184 174 -324l47 -88q2 -37 45 -49q10 -4 43 -8q37 12 52 41q6 10 8 22l-250 543v55l74 176q20 27 41 19q8 -4 16 -12q27 -31 102 -78q20 -14 66 -39l115 -6q31 -2 53 24q4 6 8 25q3 8 3 15 q0 19 -21 28q-12 6 -31 8l-76 6q-102 66 -149 117q-25 23 -45 49q-31 68 -130 88q-29 4 -92 4h-307q-20 -10 -31 -33q-4 -12 -4 -16q-2 -4 -13 -16.5t-19 -22.5q-12 -16 -134 -190q-3 -14 -2 -25q0 -26 13 -39q4 -6 20 -10q45 12 66 25q8 8 8 12l121 145q-6 10 12 25 q10 10 18 14l103 -6q29 20 37 8q2 -4 2 -18q-76 -106 -103 -189q-16 -49 -22 -79l-4 -117l-6 -187q2 -27 -13 -36q-2 -2 -18 -9h-80q-18 0 -86 -1t-113 -1q-12 3 -22 3q-32 0 -47 -29q-7 -12 -11 -43zM1006 1321q0 47 33.5 82t80.5 35q49 0 83 -35t34 -82t-34 -81t-83 -34 q-47 0 -80.5 34t-33.5 81z" />
<glyph unicode="&#xf4;" d="M593 1890q-12 -25 15 -43l28 -14l928 -240q10 -4 31 -4q27 4 35 31l14 47q14 20 -20 98q-16 35 -41 76q-18 29 -27.5 66.5t-8.5 85.5t4 86t17.5 100.5t21.5 93.5t26.5 99.5t23.5 84.5q10 59 -10 107q-47 119 -228 170l-55 14q-186 49 -283 -31q-43 -37 -61 -90 q-6 -20 -23.5 -86.5t-26.5 -98.5t-27.5 -91.5t-35 -94t-39 -76.5t-49 -70t-57.5 -44q-35 -16 -72 -47q-76 -49 -69 -82zM649 1624l76 84q18 23 43 32q12 4 18 4q49 -14 35 -61l-74 -86q-23 -25 -47 -33q-4 -4 -16 -4q-49 15 -35 64zM1357.5 2858.5q8.5 30.5 36 46t58.5 7.5 q29 -8 45 -35t8 -57.5t-36 -47t-58 -8.5q-29 8 -45.5 36t-8 58.5zM317 328q8 -39 54 -56q29 -8 47 -8h385q10 0 20 17q19 29 19 92v24q12 125 37 150q8 10 20 0q96 -184 174 -324l47 -88q2 -37 45 -49q10 -4 43 -8q37 12 52 41q6 10 8 22l-250 543v55l74 176q20 27 41 19 q8 -4 16 -12q27 -31 102 -78q20 -14 66 -39l115 -6q31 -2 53 24q4 6 8 25q3 8 3 15q0 19 -21 28q-12 6 -31 8l-76 6q-102 66 -149 117q-25 23 -45 49q-31 68 -130 88q-29 4 -92 4h-307q-20 -10 -31 -33q-4 -12 -4 -16q-2 -4 -13 -16.5t-19 -22.5q-12 -16 -134 -190 q-3 -14 -2 -25q0 -26 13 -39q4 -6 20 -10q45 12 66 25q8 8 8 12l121 145q-6 10 12 25q10 10 18 14l103 -6q29 20 37 8q2 -4 2 -18q-76 -106 -103 -189q-16 -49 -22 -79l-4 -117l-6 -187q2 -27 -13 -36q-2 -2 -18 -9h-80q-18 0 -86 -1t-113 -1q-12 3 -22 3q-32 0 -47 -29 q-7 -12 -11 -43zM1006 1321q0 47 33.5 82t80.5 35q49 0 83 -35t34 -82t-34 -81t-83 -34q-47 0 -80.5 34t-33.5 81z" />
<glyph unicode="&#xf5;" d="M340 1618v778q0 25 16.5 41t38.5 16q25 0 41.5 -16.5t16.5 -40.5v-778q0 -25 -16.5 -41.5t-41.5 -16.5q-23 0 -39 16.5t-16 41.5zM563 1728v557q0 23 16.5 39.5t39 16.5t39 -16.5t16.5 -39.5v-557q0 -23 -16.5 -39t-39 -16t-39 16t-16.5 39zM787 1784v446q0 47 32.5 79 t77.5 32h447q45 0 77.5 -32t32.5 -79v-446q0 -47 -32.5 -79t-77.5 -32h-447q-45 0 -77.5 32t-32.5 79zM1567 1728v557q0 23 16.5 39.5t39 16.5t38.5 -16.5t16 -39.5v-557q0 -23 -16 -39t-38.5 -16t-39 16t-16.5 39zM1788 1618v778q0 25 16.5 41t40.5 16q23 0 39.5 -16.5 t16.5 -40.5v-778q0 -25 -16.5 -41.5t-39.5 -16.5q-25 0 -41 16.5t-16 41.5zM317 328q8 -39 54 -56q29 -8 47 -8h385q10 0 20 17q19 29 19 92v24q12 125 37 150q8 10 20 0q96 -184 174 -324l47 -88q2 -37 45 -49q10 -4 43 -8q37 12 52 41q6 10 8 22l-250 543v55l74 176 q20 27 41 19q8 -4 16 -12q27 -31 102 -78q20 -14 66 -39l115 -6q31 -2 53 24q4 6 8 25q3 8 3 15q0 19 -21 28q-12 6 -31 8l-76 6q-102 66 -149 117q-25 23 -45 49q-31 68 -130 88q-29 4 -92 4h-307q-20 -10 -31 -33q-4 -12 -4 -16q-2 -4 -13 -16.5t-19 -22.5 q-12 -16 -134 -190q-3 -14 -2 -25q0 -26 13 -39q4 -6 20 -10q45 12 66 25q8 8 8 12l121 145q-6 10 12 25q10 10 18 14l103 -6q29 20 37 8q2 -4 2 -18q-76 -106 -103 -189q-16 -49 -22 -79l-4 -117l-6 -187q2 -27 -13 -36q-2 -2 -18 -9h-80q-18 0 -86 -1t-113 -1q-12 3 -22 3 q-32 0 -47 -29q-7 -12 -11 -43zM1006 1321q0 47 33.5 82t80.5 35q49 0 83 -35t34 -82t-34 -81t-83 -34q-47 0 -80.5 34t-33.5 81z" />
<glyph unicode="&#xf9;" d="M1045 2472q0 215 162.5 370t381.5 155t385 -155t166 -370q0 -168 -278 -559q-111 -158 -279 -352q-150 176 -270 354q-268 393 -268 557zM1428 2669q0 -70 48 -118t115 -48q70 0 117 48t47 118q0 68 -47 116t-117 48q-68 0 -115.5 -48t-47.5 -116zM279 582q-3 9 -3 16 q0 19 19 25q8 2 27 2l456 -2q41 0 41 -23q0 -7 -4 -16q-8 -20 -27 -37l-167 -141l10 -11q10 -10 32.5 -25.5t54.5 -31.5t88 -27.5t124 -11.5q201 0 335 132t134 331q0 20 12 39q27 37 90 37q27 0 51 -11q51 -20 52 -65q-4 -276 -201 -473q-195 -195 -468 -195h-5 q-78 0 -154 19q-186 45 -295 153l-121 -153q-35 -34 -54 -34q-8 0 -13 5q-10 10 -10 31zM281 754q0 276 200 473q199 195 472 194h5q78 0 154 -18q182 -45 295 -154l121 154q35 34 55 34q8 0 12 -5q10 -10 11 -31l4 -467q2 -8 2 -15q0 -20 -19 -26q-8 -2 -26 -2l-457 2 q-31 0 -40 11t1 26q12 25 29 39l170 141q-2 -2 -12.5 7t-33 25.5t-55 33t-89 27.5t-122.5 11q-201 0 -335 -131t-134 -329q-4 -23 -14 -39q-25 -37 -82 -37h-6q-25 0 -53 8q-53 19 -53 68z" />
<glyph unicode="&#xfb;" d="M1056 1890q-12 -25 15 -43l28 -14l928 -240q10 -4 31 -4q27 4 35 31l14 47q14 20 -20 98q-16 35 -41 76q-18 29 -27.5 66.5t-8.5 85.5t4 86t17.5 100.5t21.5 93.5t26.5 99.5t23.5 84.5q10 59 -10 107q-47 119 -228 170l-55 14q-186 49 -283 -31q-43 -37 -61 -90 q-6 -20 -23.5 -86.5t-26.5 -98.5t-27.5 -91.5t-35 -94t-39 -76.5t-49 -70t-57.5 -44q-35 -16 -72 -47q-76 -49 -69 -82zM1112 1624l76 84q18 23 43 32q12 4 18 4q49 -14 35 -61l-74 -86q-23 -25 -47 -33q-4 -4 -16 -4q-49 15 -35 64zM1820.5 2858.5q8.5 30.5 36 46t58.5 7.5 q29 -8 45 -35t8 -57.5t-36 -47t-58 -8.5q-29 8 -45.5 36t-8 58.5zM279 582q-3 9 -3 16q0 19 19 25q8 2 27 2l456 -2q41 0 41 -23q0 -7 -4 -16q-8 -20 -27 -37l-167 -141l10 -11q10 -10 32.5 -25.5t54.5 -31.5t88 -27.5t124 -11.5q201 0 335 132t134 331q0 20 12 39 q27 37 90 37q27 0 51 -11q51 -20 52 -65q-4 -276 -201 -473q-195 -195 -468 -195h-5q-78 0 -154 19q-186 45 -295 153l-121 -153q-35 -34 -54 -34q-8 0 -13 5q-10 10 -10 31zM281 754q0 276 200 473q199 195 472 194h5q78 0 154 -18q182 -45 295 -154l121 154q35 34 55 34 q8 0 12 -5q10 -10 11 -31l4 -467q2 -8 2 -15q0 -20 -19 -26q-8 -2 -26 -2l-457 2q-31 0 -40 11t1 26q12 25 29 39l170 141q-2 -2 -12.5 7t-33 25.5t-55 33t-89 27.5t-122.5 11q-201 0 -335 -131t-134 -329q-4 -23 -14 -39q-25 -37 -82 -37h-6q-25 0 -53 8q-53 19 -53 68z " />
<glyph unicode="&#xff;" horiz-adv-x="1705" />
<glyph unicode="&#x152;" horiz-adv-x="3637" d="M1958 1300q0 104 70 150q35 20 67 20q2 0 4 1q66 0 107 -87q16 -33 27 -86l22 -57l1051 2q61 0 90 -59q16 -33 16 -60v-395q0 -72 -53 -96q-33 -14 -55 -15l-987 -2l26 -112h959q20 0 37.5 -30t17.5 -56.5t-17.5 -56t-37.5 -29.5h-1032q-20 0 -38 43t-18 71q0 10 -69 437 l-72 417h-115zM2261 1014q0 -23 16.5 -39.5t39.5 -16.5h55q23 0 39 16.5t16 39.5v57q0 23 -16.5 40t-38.5 17h-55q-23 0 -39.5 -17t-16.5 -40v-57zM2317 162q0 49 29.5 80.5t76.5 31.5t79 -31.5t32 -80.5q0 -47 -33 -81t-78 -34t-75.5 34t-30.5 81zM2317 786q0 -25 15 -40 t38 -15h2q23 0 39 15.5t16 39.5v58q0 23 -16.5 40t-38.5 17h-2q-23 0 -38 -17.5t-15 -39.5v-58zM2481 786q0 -25 16 -40t39 -15h55q23 0 38 15.5t15 39.5v58q0 23 -16 40t-37 17h-55q-23 0 -39 -17.5t-16 -39.5v-58zM2481 1014q0 -23 16 -39.5t39 -16.5h55q23 0 38 16.5 t15 39.5v57q0 23 -16 40t-37 17h-55q-23 0 -39 -17t-16 -40v-57zM2700 786q0 -25 15 -40t38 -15h55q25 0 41.5 15.5t16.5 39.5v58q0 23 -17.5 40t-40.5 17h-55q-20 0 -36.5 -17.5t-16.5 -39.5v-58zM2700 1014q0 -23 15 -39.5t38 -16.5h55q23 0 40.5 16.5t17.5 39.5v57 q0 23 -17.5 40t-40.5 17h-55q-20 0 -36.5 -17t-16.5 -40v-57zM2917 162q0 47 31.5 79.5t80.5 32.5q47 0 79 -32.5t32 -79.5q0 -49 -32 -82t-79 -33q-49 0 -80.5 33t-31.5 82zM2919 786q0 -25 16.5 -40t38.5 -15h55q23 0 38.5 15.5t15.5 39.5v58q0 23 -16.5 40t-37.5 17h-55 q-23 0 -39 -17.5t-16 -39.5v-58zM2919 1014q0 -23 16.5 -39.5t38.5 -16.5h55q23 0 38.5 16.5t15.5 39.5v57q0 23 -16.5 40t-37.5 17h-55q-23 0 -39 -17t-16 -40v-57zM3138 786q0 -25 15.5 -40t37.5 -15h55q23 0 39.5 15.5t16.5 39.5v58q0 23 -16.5 40t-39.5 17h-55 q-20 0 -36.5 -17.5t-16.5 -39.5v-58zM3138 1014q0 -23 15.5 -39.5t37.5 -16.5h55q23 0 39.5 16.5t16.5 39.5v57q0 23 -16.5 40t-39.5 17h-55q-20 0 -36.5 -17t-16.5 -40v-57zM408 330v643q0 20 13 33.5t34 13.5h1058q20 0 34 -13.5t14 -33.5v-643q0 -20 -13.5 -33.5 t-34.5 -13.5h-460v-97l90 -129h-316l88 133v93h-460q-20 0 -33.5 13.5t-13.5 33.5zM547 422h876v459h-876v-459zM752 1251l137 -37v269h184v-271l139 35l-233 -190z" />
<glyph unicode="&#x153;" horiz-adv-x="3637" d="M1878 160q0 102 25 176q14 43 27 55q35 35 125 84t192 66q43 6 69.5 28.5t34 49t8.5 53t-1 45.5l-2 16q2 0 2 4q0 25 -2 35q-66 66 -91 146q-12 33 -12 63q-2 18 -2 57q0 72 2 107q6 147 90 205q37 25 82 30l125 -45q35 0 76 -22q76 -45 92 -168v-178q-6 -80 -55 -146 q-14 -18 -47 -43q-4 -18 -4 -33q0 -4 2 -4v-16q-2 -18 2 -47t15 -56.5t41 -51t73 -29.5q150 -25 305 -150q6 -14 16 -39q12 -49 29 -192h-1217zM2833 842v51v127q18 123 92 170q31 20 70 24l102 -36q35 -4 65 -19q68 -39 89 -139v-191q-16 -82 -60 -120q-18 -23 -41 -35 q-2 -8 -2 -29q0 -4 2 -2q4 0 1 -14.5t2 -38t13.5 -47t32 -43t60.5 -25.5q84 -12 152.5 -52t99.5 -71q10 -14 16 -35q16 -43 39 -157l-416 4q-18 193 -20 205l-8 34q-25 35 -189 138q8 25 7 46t-4 35.5t-1 14.5t2 2q0 18 -2 27q-66 57 -90 122q-10 29 -12 54zM317 328 q8 -39 54 -56q29 -8 47 -8h385q10 0 20 17q19 29 19 92v24q12 125 37 150q8 10 20 0q96 -184 174 -324l47 -88q2 -37 45 -49q10 -4 43 -8q37 12 52 41q6 10 8 22l-250 543v55l74 176q20 27 41 19q8 -4 16 -12q27 -31 102 -78q20 -14 66 -39l115 -6q31 -2 53 24q4 6 8 25 q3 8 3 15q0 19 -21 28q-12 6 -31 8l-76 6q-102 66 -149 117q-25 23 -45 49q-31 68 -130 88q-29 4 -92 4h-307q-20 -10 -31 -33q-4 -12 -4 -16q-2 -4 -13 -16.5t-19 -22.5q-12 -16 -134 -190q-3 -14 -2 -25q0 -26 13 -39q4 -6 20 -10q45 12 66 25q8 8 8 12l121 145 q-6 10 12 25q10 10 18 14l103 -6q29 20 37 8q2 -4 2 -18q-76 -106 -103 -189q-16 -49 -22 -79l-4 -117l-6 -187q2 -27 -13 -36q-2 -2 -18 -9h-80q-18 0 -86 -1t-113 -1q-12 3 -22 3q-32 0 -47 -29q-7 -12 -11 -43zM1006 1321q0 47 33.5 82t80.5 35q49 0 83 -35t34 -82 t-34 -81t-83 -34q-47 0 -80.5 34t-33.5 81z" />
<glyph unicode="&#x2c6;" d="M274 422q-12 -25 15 -43l28 -14l928 -240q10 -4 31 -4q27 4 35 31l14 47q14 20 -20 98q-16 35 -41 76q-18 29 -27.5 66.5t-8.5 85.5t4 86t17.5 100.5t21.5 93.5t26.5 99.5t23.5 84.5q10 59 -10 107q-47 119 -228 170l-55 14q-186 49 -283 -31q-43 -37 -61 -90 q-6 -20 -23.5 -86.5t-26.5 -98.5t-27.5 -91.5t-35 -94t-39 -76.5t-49 -70t-57.5 -44q-35 -16 -72 -47q-76 -49 -69 -82zM330 156l76 84q18 23 43 32q12 4 18 4q49 -14 35 -61l-74 -86q-23 -25 -47 -33q-4 -4 -16 -4q-49 15 -35 64zM1038.5 1390.5q8.5 30.5 36 46t58.5 7.5 q29 -8 45 -35t8 -57.5t-36 -47t-58 -8.5q-29 8 -45.5 36t-8 58.5z" />
<glyph unicode="&#x2dc;" horiz-adv-x="1024" d="M-780 181v778q0 25 16.5 41t38.5 16q25 0 41.5 -16.5t16.5 -40.5v-778q0 -25 -16.5 -41.5t-41.5 -16.5q-23 0 -39 16.5t-16 41.5zM-557 291v557q0 23 16.5 39.5t39 16.5t39 -16.5t16.5 -39.5v-557q0 -23 -16.5 -39t-39 -16t-39 16t-16.5 39zM-333 347v446q0 47 32.5 79 t77.5 32h447q45 0 77.5 -32t32.5 -79v-446q0 -47 -32.5 -79t-77.5 -32h-447q-45 0 -77.5 32t-32.5 79zM447 291v557q0 23 16.5 39.5t39 16.5t38.5 -16.5t16 -39.5v-557q0 -23 -16 -39t-38.5 -16t-39 16t-16.5 39zM668 181v778q0 25 16.5 41t40.5 16q23 0 39.5 -16.5 t16.5 -40.5v-778q0 -25 -16.5 -41.5t-39.5 -16.5q-25 0 -41 16.5t-16 41.5z" />
<glyph unicode="&#x2000;" horiz-adv-x="1523" />
<glyph unicode="&#x2001;" horiz-adv-x="3047" />
<glyph unicode="&#x2002;" horiz-adv-x="1523" />
<glyph unicode="&#x2003;" horiz-adv-x="3047" />
<glyph unicode="&#x2004;" horiz-adv-x="1015" />
<glyph unicode="&#x2005;" horiz-adv-x="761" />
<glyph unicode="&#x2006;" horiz-adv-x="507" />
<glyph unicode="&#x2007;" horiz-adv-x="507" />
<glyph unicode="&#x2008;" horiz-adv-x="380" />
<glyph unicode="&#x2009;" horiz-adv-x="608" />
<glyph unicode="&#x200a;" horiz-adv-x="167" />
<glyph unicode="&#x2010;" d="M147 698v176q0 31 13 58q33 61 106 61h1297q29 0 61 -14q61 -33 62 -105v-190q0 -33 -15 -61q-31 -59 -110 -60h-1299q-31 0 -57 17q-58 38 -58 118z" />
<glyph unicode="&#x2011;" d="M147 698v176q0 31 13 58q33 61 106 61h1297q29 0 61 -14q61 -33 62 -105v-190q0 -33 -15 -61q-31 -59 -110 -60h-1299q-31 0 -57 17q-58 38 -58 118z" />
<glyph unicode="&#x2012;" d="M147 698v176q0 31 13 58q33 61 106 61h1297q29 0 61 -14q61 -33 62 -105v-190q0 -33 -15 -61q-31 -59 -110 -60h-1299q-31 0 -57 17q-58 38 -58 118z" />
<glyph unicode="&#x2013;" horiz-adv-x="1024" d="M147 563v430h744v-430h-744z" />
<glyph unicode="&#x2014;" horiz-adv-x="2048" d="M147 563v430h1768v-430h-1768z" />
<glyph unicode="&#x2018;" d="M367 954q0 215 162.5 370t381.5 155t385 -155t166 -370q0 -168 -278 -559q-111 -158 -279 -352q-150 176 -270 354q-268 393 -268 557zM750 1151q0 -70 48 -118t115 -48q70 0 117 48t47 118q0 68 -47 116t-117 48q-68 0 -115.5 -48t-47.5 -116z" />
<glyph unicode="&#x2019;" d="M469 190v1106q0 14 6 23q12 25 39 24q14 0 23 -6q25 -12 24 -37v-1110q0 -6 -4 -22q-14 -23 -41 -23q-12 0 -24 7q-23 13 -23 38zM606 193v1103q0 14 6 23q12 25 41 24h47q27 -8 39 -26q6 -10 6 -21v-104q0 -18 -1 -223t-1 -412l183 188l186 -190v741q0 6 4 23 q8 23 33 22l237 2q14 0 25 -6q25 -12 25 -41v-1063q0 -25 -13 -43q-20 -45 -80 -45h-690q-12 0 -24 7q-23 14 -23 41zM651 1389q-2 14 11.5 23t36 15.5t46.5 6.5l228 2q29 -4 41 -13q43 -23 53 -75v-650l-139 140l-137 -142v647q0 23 -23 37q-12 6 -23 6z" />
<glyph unicode="&#x201c;" d="M100 936q0 184 182.5 313t438.5 129q248 0 390 -126t142 -316q0 -193 -141 -316.5t-391 -123.5q-70 0 -121 8q-57 -61 -115 -96q-150 -90 -305 -64q49 25 86 56.5t53.5 61.5t22.5 56.5t2 45t-14 24.5q-230 139 -230 348zM705 440q141 -102 360 -102q12 0 121 16 q43 -49 112 -90q145 -76 310 -18q-51 25 -87 51.5t-52.5 50t-22.5 44t-2 34.5t14 20q238 143 238 347q0 158 -139.5 288.5t-348.5 171.5q72 -117 94.5 -242.5t-10 -235t-106.5 -193.5t-199.5 -123t-281.5 -19z" />
<glyph unicode="&#x201d;" d="M100 936q0 184 182.5 313t438.5 129q248 0 390 -126t142 -316q0 -193 -141 -316.5t-391 -123.5q-70 0 -121 8q-57 -61 -115 -96q-150 -90 -305 -64q49 25 86 56.5t53.5 61.5t22.5 56.5t2 45t-14 24.5q-230 139 -230 348zM705 440q141 -102 360 -102q12 0 121 16 q43 -49 112 -90q145 -76 310 -18q-51 25 -87 51.5t-52.5 50t-22.5 44t-2 34.5t14 20q238 143 238 347q0 158 -139.5 288.5t-348.5 171.5q72 -117 94.5 -242.5t-10 -235t-106.5 -193.5t-199.5 -123t-281.5 -19z" />
<glyph unicode="&#x2026;" horiz-adv-x="5455" d="M3981 1073l12 318q213 4 285 4q291 0 317 -27l648 -586q29 -37 13.5 -93t-50.5 -95l-406 -453q-31 -31 -75 -30.5t-76 30.5l-654 611q-26 -1 -14 321zM4083 1179q0 -46 35 -79q33 -33 79 -33t79 33t33 79t-33 78.5t-79 32.5t-79 -33q-35 -32 -35 -78zM2163 1073l12 318 q213 4 285 4q291 0 317 -27l648 -586q29 -37 13.5 -93t-50.5 -95l-406 -453q-31 -31 -75 -30.5t-76 30.5l-654 611q-26 -1 -14 321zM2265 1179q0 -46 35 -79q33 -33 79 -33t79 33t33 79t-33 78.5t-79 32.5t-79 -33q-35 -32 -35 -78zM344 1073l12 318q213 4 285 4 q291 0 317 -27l648 -586q29 -37 13.5 -93t-50.5 -95l-406 -453q-31 -31 -75 -30.5t-76 30.5l-654 611q-26 -1 -14 321zM446 1179q0 -46 35 -79q33 -33 79 -33t79 33t33 79t-33 78.5t-79 32.5t-79 -33q-35 -32 -35 -78z" />
<glyph unicode="&#x202f;" horiz-adv-x="608" />
<glyph unicode="&#x2039;" d="M72 786q-10 23 18 52l635 635q18 18 35 18q31 0 31 -80v-317l788 2q78 0 113 -64q14 -27 18 -63v-334q0 -82 -61 -115q-27 -16 -62 -18h-796v-309q0 -39 -9 -58q-18 -53 -59 -8l-633 637q-12 8 -18 22z" />
<glyph unicode="&#x203a;" d="M92 594v334q4 37 19 63q35 63 112 64l789 -2v317q-8 80 28 80q12 0 35 -18l649 -635q27 -25 17 -52q-6 -14 -19 -22l-645 -637q-41 -41 -57 8q-8 18 -8 58v309h-797q-35 2 -61 18q-62 33 -62 115z" />
<glyph unicode="&#x205f;" horiz-adv-x="761" />
<glyph unicode="&#x2122;" horiz-adv-x="3637" d="M1962 238v843q0 18 52.5 61.5t119.5 84.5q6 4 72 43t105 59q16 20 65 43q18 6 35 6h643q35 0 72 -24l26 -25q90 -51 174 -104q172 -106 172 -144v-843q0 -41 -28.5 -70t-69.5 -29h-1339q-41 0 -70 29t-29 70zM2061 287q0 -20 15 -34.5t36 -14.5h1239q20 0 34.5 14 t14.5 35v297v151v297l-14 25q-16 25 -35 24h-1239q-20 0 -35.5 -14t-15.5 -35v-297v-151v-297zM2108 287v348h495q0 -16 7 -25q14 -27 45 -26h151q27 0 45 26q6 16 6 27l494 -2v-348h-1243zM2108 684v348h495q0 -14 7 -26q16 -25 45 -25h151q27 0 45 27q6 12 6 26l494 -2 v-348h-1243zM2556 436.5q0 -20.5 15.5 -36t35.5 -15.5h248q20 0 35.5 15.5t15.5 36t-15 34.5t-36 14h-248q-20 0 -35.5 -14t-15.5 -34.5zM2556 833.5q0 -20.5 15.5 -36t35.5 -15.5h248q20 0 35.5 15.5t15.5 36t-15 35t-36 14.5h-248q-20 0 -35.5 -14.5t-15.5 -35zM201 510 q2 2 5 7t15 11.5t27 6.5l158 -39l438 419q-502 236 -602 293q-4 2 -9.5 6.5t-14.5 19.5t1 36q2 4 7 9t21.5 12t35.5 -11l235 -33l94 107q20 25 40 35t30 8h10q25 -13 26 -34q0 -16 -16 -36l-65 -90l203 -27l92 101q12 23 28.5 31t26.5 6l10 -5q25 -6 33 -18t4 -20l-4 -9 l-76 -110l187 -39l329 258q6 6 18.5 13t53.5 18q13 3 26 3q28 0 54 -16q13 -29 13 -56q0 -39 -25 -75l-332 -301l33 -196l88 36q20 20 40.5 23.5t30.5 -2.5l13 -6q12 -16 12 -33q0 -30 -37 -63l-127 -80l12 -189l101 47q23 14 39 14.5t22 -5.5l6 -9q8 -20 8 -36 q0 -35 -36 -50l-129 -104l10 -131q6 -4 6 -34q0 -18 -2 -45q-4 -50 -28 -50q-11 0 -25 10l-297 680l-490 -436l35 -144l-39 -43q-20 -23 -39.5 -23.5t-29.5 9.5l-11 8q-12 43 -35.5 87t-41.5 65l-19 22q-25 27 -86 60t-74 45q-6 6 -13 14q-6 7 -6 27q0 30 32 51z" />
<glyph unicode="&#xe000;" horiz-adv-x="1495" d="M0 1495h1495v-1495h-1495v1495z" />
<glyph unicode="&#xfb01;" horiz-adv-x="3637" d="M2083 750v30q0 82 168 115q-96 96 -96 153q0 16 8 29l16 29q23 38 84 38q48 0 119 -24q-17 70 -17 117q0 66 34 86l26 16q18 10 37 10q62 0 145 -100q12 53 43 110.5t74 57.5h31q84 0 115 -168q96 96 153 96q16 0 29 -8l27 -16q39 -23 39 -85q0 -47 -23 -116 q74 22 122 23q62 0 83 -37l16 -29q7 -13 7 -29q0 -58 -95 -153q164 -35 164 -115v-30q0 -72 -166 -117q20 -16 41.5 -41t44.5 -68q11 -22 11 -40t-11 -33l-16 -27q-17 -31 -84 -32q-46 0 -117 16q26 -70 26 -118q0 -61 -42 -85l-27 -15q-14 -8 -31 -7q-58 0 -151 93 q-39 -166 -115 -165h-31q-43 0 -73.5 55t-43.5 108q-81 -97 -143 -96q-21 0 -39 10l-26 17q-32 19 -33 86q0 47 16 117q-72 -19 -120 -20q-62 0 -81 34l-14 29q-9 17 -9 35q0 28 20 60q34 52 77 87q-172 43 -172 117zM2450 764q0 -121 84 -205t205 -84q119 0 202.5 85 t83.5 204t-84 203t-202.5 84t-203.5 -84t-85 -203zM2601 289l4 -4v2q-2 0 -4 2zM2612 760q0 53 38.5 92t92 39t92.5 -39t39 -92t-39 -92t-92.5 -39t-92 39t-38.5 92zM3091 1112l4 -2l-2 4zM37 201l274 2q6 123 13 172q2 20 6 31q25 37 157 118q-10 37 11 39l-2 2q0 12 4 23 q37 33 67 90q4 12 8 41v137q-14 96 -69 129q-20 14 -53 19l-78 -27q-29 -4 -51 -14q-49 -33 -70 -107v-145q14 -57 47 -90q18 -18 33 -27q0 -8 2 -16v-7q0 -2 -2 -2q-2 -2 0 -12t-2 -28.5t-9.5 -36t-23.5 -33t-47 -19.5t-54.5 -13t-45 -21.5t-33 -22.5t-26.5 -22.5 t-15 -14.5q-6 -10 -12 -24q-17 -47 -29 -121zM354 201v13q0 80 23 146q8 27 22 48q131 113 285 135q23 2 41 10t28.5 19.5t18.5 24.5t11 27.5t5.5 28t1 25.5t-1.5 21.5t-1 13.5t1 4v2q0 23 -2 33q-61 53 -88 131q-12 27 -12 57v51v96q0 121 86 183q31 23 74 28l112 -38 q37 -4 70 -21q70 -45 90 -152v-161q-14 -72 -61 -133q-20 -25 -45 -39q-2 -8 -2 -31v-4l2 -4v-14q0 -9 1 -21t5 -26.5t9 -28t14.5 -27.5t21.5 -25.5t30.5 -19.5t41.5 -10q137 -20 272 -135q2 -4 14 -37q18 -53 27 -170h-1094zM1235 719v137q14 96 70 129q20 14 53 19l78 -27 q29 -4 47 -14q53 -33 67 -107v-145q-14 -63 -45 -90q-23 -23 -28 -27q-2 -14 -2 -23q0 -2 2 -2q2 -2 0 -12t2 -28.5t9 -36t23.5 -33t47.5 -19.5q35 -4 66.5 -18t49 -26.5t37 -30t21.5 -19.5q8 -12 10 -24q16 -45 31 -121l-275 2q-29 178 -31 186l-8 31q-25 37 -135 110 q-4 6 -8 15.5t-6 13.5v4l2 2q0 8 -2 23q-37 33 -68 90q-4 12 -8 41z" />
<glyph unicode="&#xfb02;" horiz-adv-x="3637" d="M1962 590q0 -25 16.5 -40t39.5 -15h215q25 0 40 15t15 40v377q0 25 -15.5 40t-39.5 15h-215q-23 0 -39.5 -15.5t-16.5 -39.5v-377zM2071 156q0 -23 16.5 -38.5t38.5 -15.5q20 0 36.5 16.5t16.5 37.5v325h-108v-325zM2071 1075v326q0 23 16.5 38t38.5 15q20 0 36.5 -16.5 t16.5 -36.5v-326h-108zM2558 373q0 -23 15.5 -38.5t38.5 -15.5h217q23 0 38 15.5t15 38.5v379q0 23 -15.5 38t-37.5 15h-217q-23 0 -38.5 -15.5t-15.5 -37.5v-379zM2667 156q0 -23 15.5 -38.5t38 -15.5t37.5 15.5t15 38.5v108h-106v-108zM2667 860v541q0 23 15.5 38t38 15 t37.5 -15.5t15 -37.5v-541h-106zM3152 805q0 -23 15.5 -38t40.5 -15h215q23 0 39 15t16 38v379q0 23 -16.5 38t-38.5 15h-215q-25 0 -40.5 -15.5t-15.5 -37.5v-379zM3261 156q0 -20 16.5 -37t36.5 -17q23 0 39 15.5t16 38.5v540h-108v-540zM3261 1292v109q0 20 16.5 36.5 t36.5 16.5q23 0 39 -15.5t16 -37.5v-109h-108zM37 201l274 2q6 123 13 172q2 20 6 31q25 37 157 118q-10 37 11 39l-2 2q0 12 4 23q37 33 67 90q4 12 8 41v137q-14 96 -69 129q-20 14 -53 19l-78 -27q-29 -4 -51 -14q-49 -33 -70 -107v-145q14 -57 47 -90q18 -18 33 -27 q0 -8 2 -16v-7q0 -2 -2 -2q-2 -2 0 -12t-2 -28.5t-9.5 -36t-23.5 -33t-47 -19.5t-54.5 -13t-45 -21.5t-33 -22.5t-26.5 -22.5t-15 -14.5q-6 -10 -12 -24q-17 -47 -29 -121zM354 201v13q0 80 23 146q8 27 22 48q131 113 285 135q23 2 41 10t28.5 19.5t18.5 24.5t11 27.5 t5.5 28t1 25.5t-1.5 21.5t-1 13.5t1 4v2q0 23 -2 33q-61 53 -88 131q-12 27 -12 57v51v96q0 121 86 183q31 23 74 28l112 -38q37 -4 70 -21q70 -45 90 -152v-161q-14 -72 -61 -133q-20 -25 -45 -39q-2 -8 -2 -31v-4l2 -4v-14q0 -9 1 -21t5 -26.5t9 -28t14.5 -27.5 t21.5 -25.5t30.5 -19.5t41.5 -10q137 -20 272 -135q2 -4 14 -37q18 -53 27 -170h-1094zM1235 719v137q14 96 70 129q20 14 53 19l78 -27q29 -4 47 -14q53 -33 67 -107v-145q-14 -63 -45 -90q-23 -23 -28 -27q-2 -14 -2 -23q0 -2 2 -2q2 -2 0 -12t2 -28.5t9 -36t23.5 -33 t47.5 -19.5q35 -4 66.5 -18t49 -26.5t37 -30t21.5 -19.5q8 -12 10 -24q16 -45 31 -121l-275 2q-29 178 -31 186l-8 31q-25 37 -135 110q-4 6 -8 15.5t-6 13.5v4l2 2q0 8 -2 23q-37 33 -68 90q-4 12 -8 41z" />
<glyph unicode="&#xfb03;" horiz-adv-x="5455" d="M3901 750v30q0 82 168 115q-96 96 -96 153q0 16 8 29l16 29q23 38 84 38q48 0 119 -24q-17 70 -17 117q0 66 34 86l26 16q18 10 37 10q62 0 145 -100q12 53 43 110.5t74 57.5h31q84 0 115 -168q96 96 153 96q16 0 29 -8l27 -16q39 -23 39 -85q0 -47 -23 -116 q74 22 122 23q62 0 83 -37l16 -29q7 -13 7 -29q0 -58 -95 -153q164 -35 164 -115v-30q0 -72 -166 -117q20 -16 41.5 -41t44.5 -68q11 -22 11 -40t-11 -33l-16 -27q-17 -31 -84 -32q-46 0 -117 16q26 -70 26 -118q0 -61 -42 -85l-27 -15q-14 -8 -31 -7q-58 0 -151 93 q-39 -166 -115 -165h-31q-43 0 -73.5 55t-43.5 108q-81 -97 -143 -96q-21 0 -39 10l-26 17q-32 19 -33 86q0 47 16 117q-72 -19 -120 -20q-62 0 -81 34l-14 29q-9 17 -9 35q0 28 20 60q34 52 77 87q-172 43 -172 117zM4268 764q0 -121 84 -205t205 -84q119 0 202.5 85 t83.5 204t-84 203t-202.5 84t-203.5 -84t-85 -203zM4419 289l4 -4v2q-2 0 -4 2zM4430 760q0 53 38.5 92t92 39t92.5 -39t39 -92t-39 -92t-92.5 -39t-92 39t-38.5 92zM4909 1112l4 -2l-2 4zM1856 201l274 2q6 123 13 172q2 20 6 31q25 37 157 118q-10 37 11 39l-2 2 q0 12 4 23q37 33 67 90q4 12 8 41v137q-14 96 -69 129q-20 14 -53 19l-78 -27q-29 -4 -51 -14q-49 -33 -70 -107v-145q14 -57 47 -90q18 -18 33 -27q0 -8 2 -16v-7q0 -2 -2 -2q-2 -2 0 -12t-2 -28.5t-9.5 -36t-23.5 -33t-47 -19.5t-54.5 -13t-45 -21.5t-33 -22.5 t-26.5 -22.5t-15 -14.5q-6 -10 -12 -24q-17 -47 -29 -121zM2173 201v13q0 80 23 146q8 27 22 48q131 113 285 135q23 2 41 10t28.5 19.5t18.5 24.5t11 27.5t5.5 28t1 25.5t-1.5 21.5t-1 13.5t1 4v2q0 23 -2 33q-61 53 -88 131q-12 27 -12 57v51v96q0 121 86 183q31 23 74 28 l112 -38q37 -4 70 -21q70 -45 90 -152v-161q-14 -72 -61 -133q-20 -25 -45 -39q-2 -8 -2 -31v-4l2 -4v-14q0 -9 1 -21t5 -26.5t9 -28t14.5 -27.5t21.5 -25.5t30.5 -19.5t41.5 -10q137 -20 272 -135q2 -4 14 -37q18 -53 27 -170h-1094zM3054 719v137q14 96 70 129 q20 14 53 19l78 -27q29 -4 47 -14q53 -33 67 -107v-145q-14 -63 -45 -90q-23 -23 -28 -27q-2 -14 -2 -23q0 -2 2 -2q2 -2 0 -12t2 -28.5t9 -36t23.5 -33t47.5 -19.5q35 -4 66.5 -18t49 -26.5t37 -30t21.5 -19.5q8 -12 10 -24q16 -45 31 -121l-275 2q-29 178 -31 186l-8 31 q-25 37 -135 110q-4 6 -8 15.5t-6 13.5v4l2 2q0 8 -2 23q-37 33 -68 90q-4 12 -8 41zM37 201l274 2q6 123 13 172q2 20 6 31q25 37 157 118q-10 37 11 39l-2 2q0 12 4 23q37 33 67 90q4 12 8 41v137q-14 96 -69 129q-20 14 -53 19l-78 -27q-29 -4 -51 -14q-49 -33 -70 -107 v-145q14 -57 47 -90q18 -18 33 -27q0 -8 2 -16v-7q0 -2 -2 -2q-2 -2 0 -12t-2 -28.5t-9.5 -36t-23.5 -33t-47 -19.5t-54.5 -13t-45 -21.5t-33 -22.5t-26.5 -22.5t-15 -14.5q-6 -10 -12 -24q-17 -47 -29 -121zM354 201v13q0 80 23 146q8 27 22 48q131 113 285 135q23 2 41 10 t28.5 19.5t18.5 24.5t11 27.5t5.5 28t1 25.5t-1.5 21.5t-1 13.5t1 4v2q0 23 -2 33q-61 53 -88 131q-12 27 -12 57v51v96q0 121 86 183q31 23 74 28l112 -38q37 -4 70 -21q70 -45 90 -152v-161q-14 -72 -61 -133q-20 -25 -45 -39q-2 -8 -2 -31v-4l2 -4v-14q0 -9 1 -21 t5 -26.5t9 -28t14.5 -27.5t21.5 -25.5t30.5 -19.5t41.5 -10q137 -20 272 -135q2 -4 14 -37q18 -53 27 -170h-1094zM1235 719v137q14 96 70 129q20 14 53 19l78 -27q29 -4 47 -14q53 -33 67 -107v-145q-14 -63 -45 -90q-23 -23 -28 -27q-2 -14 -2 -23q0 -2 2 -2q2 -2 0 -12 t2 -28.5t9 -36t23.5 -33t47.5 -19.5q35 -4 66.5 -18t49 -26.5t37 -30t21.5 -19.5q8 -12 10 -24q16 -45 31 -121l-275 2q-29 178 -31 186l-8 31q-25 37 -135 110q-4 6 -8 15.5t-6 13.5v4l2 2q0 8 -2 23q-37 33 -68 90q-4 12 -8 41z" />
<glyph unicode="&#xfb04;" horiz-adv-x="5455" d="M3780 590q0 -25 16.5 -40t39.5 -15h215q25 0 40 15t15 40v377q0 25 -15.5 40t-39.5 15h-215q-23 0 -39.5 -15.5t-16.5 -39.5v-377zM3889 156q0 -23 16.5 -38.5t38.5 -15.5q20 0 36.5 16.5t16.5 37.5v325h-108v-325zM3889 1075v326q0 23 16.5 38t38.5 15q20 0 36.5 -16.5 t16.5 -36.5v-326h-108zM4376 373q0 -23 15.5 -38.5t38.5 -15.5h217q23 0 38 15.5t15 38.5v379q0 23 -15.5 38t-37.5 15h-217q-23 0 -38.5 -15.5t-15.5 -37.5v-379zM4485 156q0 -23 15.5 -38.5t38 -15.5t37.5 15.5t15 38.5v108h-106v-108zM4485 860v541q0 23 15.5 38t38 15 t37.5 -15.5t15 -37.5v-541h-106zM4970 805q0 -23 15.5 -38t40.5 -15h215q23 0 39 15t16 38v379q0 23 -16.5 38t-38.5 15h-215q-25 0 -40.5 -15.5t-15.5 -37.5v-379zM5079 156q0 -20 16.5 -37t36.5 -17q23 0 39 15.5t16 38.5v540h-108v-540zM5079 1292v109q0 20 16.5 36.5 t36.5 16.5q23 0 39 -15.5t16 -37.5v-109h-108zM1856 201l274 2q6 123 13 172q2 20 6 31q25 37 157 118q-10 37 11 39l-2 2q0 12 4 23q37 33 67 90q4 12 8 41v137q-14 96 -69 129q-20 14 -53 19l-78 -27q-29 -4 -51 -14q-49 -33 -70 -107v-145q14 -57 47 -90q18 -18 33 -27 q0 -8 2 -16v-7q0 -2 -2 -2q-2 -2 0 -12t-2 -28.5t-9.5 -36t-23.5 -33t-47 -19.5t-54.5 -13t-45 -21.5t-33 -22.5t-26.5 -22.5t-15 -14.5q-6 -10 -12 -24q-17 -47 -29 -121zM2173 201v13q0 80 23 146q8 27 22 48q131 113 285 135q23 2 41 10t28.5 19.5t18.5 24.5t11 27.5 t5.5 28t1 25.5t-1.5 21.5t-1 13.5t1 4v2q0 23 -2 33q-61 53 -88 131q-12 27 -12 57v51v96q0 121 86 183q31 23 74 28l112 -38q37 -4 70 -21q70 -45 90 -152v-161q-14 -72 -61 -133q-20 -25 -45 -39q-2 -8 -2 -31v-4l2 -4v-14q0 -9 1 -21t5 -26.5t9 -28t14.5 -27.5 t21.5 -25.5t30.5 -19.5t41.5 -10q137 -20 272 -135q2 -4 14 -37q18 -53 27 -170h-1094zM3054 719v137q14 96 70 129q20 14 53 19l78 -27q29 -4 47 -14q53 -33 67 -107v-145q-14 -63 -45 -90q-23 -23 -28 -27q-2 -14 -2 -23q0 -2 2 -2q2 -2 0 -12t2 -28.5t9 -36t23.5 -33 t47.5 -19.5q35 -4 66.5 -18t49 -26.5t37 -30t21.5 -19.5q8 -12 10 -24q16 -45 31 -121l-275 2q-29 178 -31 186l-8 31q-25 37 -135 110q-4 6 -8 15.5t-6 13.5v4l2 2q0 8 -2 23q-37 33 -68 90q-4 12 -8 41zM37 201l274 2q6 123 13 172q2 20 6 31q25 37 157 118q-10 37 11 39 l-2 2q0 12 4 23q37 33 67 90q4 12 8 41v137q-14 96 -69 129q-20 14 -53 19l-78 -27q-29 -4 -51 -14q-49 -33 -70 -107v-145q14 -57 47 -90q18 -18 33 -27q0 -8 2 -16v-7q0 -2 -2 -2q-2 -2 0 -12t-2 -28.5t-9.5 -36t-23.5 -33t-47 -19.5t-54.5 -13t-45 -21.5t-33 -22.5 t-26.5 -22.5t-15 -14.5q-6 -10 -12 -24q-17 -47 -29 -121zM354 201v13q0 80 23 146q8 27 22 48q131 113 285 135q23 2 41 10t28.5 19.5t18.5 24.5t11 27.5t5.5 28t1 25.5t-1.5 21.5t-1 13.5t1 4v2q0 23 -2 33q-61 53 -88 131q-12 27 -12 57v51v96q0 121 86 183q31 23 74 28 l112 -38q37 -4 70 -21q70 -45 90 -152v-161q-14 -72 -61 -133q-20 -25 -45 -39q-2 -8 -2 -31v-4l2 -4v-14q0 -9 1 -21t5 -26.5t9 -28t14.5 -27.5t21.5 -25.5t30.5 -19.5t41.5 -10q137 -20 272 -135q2 -4 14 -37q18 -53 27 -170h-1094zM1235 719v137q14 96 70 129 q20 14 53 19l78 -27q29 -4 47 -14q53 -33 67 -107v-145q-14 -63 -45 -90q-23 -23 -28 -27q-2 -14 -2 -23q0 -2 2 -2q2 -2 0 -12t2 -28.5t9 -36t23.5 -33t47.5 -19.5q35 -4 66.5 -18t49 -26.5t37 -30t21.5 -19.5q8 -12 10 -24q16 -45 31 -121l-275 2q-29 178 -31 186l-8 31 q-25 37 -135 110q-4 6 -8 15.5t-6 13.5v4l2 2q0 8 -2 23q-37 33 -68 90q-4 12 -8 41z" />
</font>
</defs>
</svg>
